  0
SECTION
  2
HEADER
  9
$ACADVER
  1
AC1018
  9
$ACADMAINTVER
 70
     0
  9
$DWGCODEPAGE
  3
ANSI_1252
  9
$INSBASE
 10
0.0
 20
0.0
 30
0.0
  9
$EXTMIN
 10
196.3851737597355
 20
114.642381103113
 30
0.0
  9
$EXTMAX
 10
295.4454162644999
 20
327.6427369240657
 30
0.0
  9
$LIMMIN
 10
0.0
 20
0.0
  9
$LIMMAX
 10
12.0
 20
9.0
  9
$ORTHOMODE
 70
     0
  9
$REGENMODE
 70
     1
  9
$FILLMODE
 70
     1
  9
$QTEXTMODE
 70
     0
  9
$MIRRTEXT
 70
     1
  9
$LTSCALE
 40
1.0
  9
$ATTMODE
 70
     1
  9
$TEXTSIZE
 40
0.2
  9
$TRACEWID
 40
0.05
  9
$TEXTSTYLE
  7
Standard
  9
$CLAYER
  8
0
  9
$CELTYPE
  6
ByLayer
  9
$CECOLOR
 62
   256
  9
$CELTSCALE
 40
1.0
  9
$DISPSILH
 70
     0
  9
$DIMSCALE
 40
1.0
  9
$DIMASZ
 40
0.18
  9
$DIMEXO
 40
0.0625
  9
$DIMDLI
 40
0.38
  9
$DIMRND
 40
0.0
  9
$DIMDLE
 40
0.0
  9
$DIMEXE
 40
0.18
  9
$DIMTP
 40
0.0
  9
$DIMTM
 40
0.0
  9
$DIMTXT
 40
0.18
  9
$DIMCEN
 40
0.09
  9
$DIMTSZ
 40
0.0
  9
$DIMTOL
 70
     0
  9
$DIMLIM
 70
     0
  9
$DIMTIH
 70
     1
  9
$DIMTOH
 70
     1
  9
$DIMSE1
 70
     0
  9
$DIMSE2
 70
     0
  9
$DIMTAD
 70
     0
  9
$DIMZIN
 70
     0
  9
$DIMBLK
  1

  9
$DIMASO
 70
     1
  9
$DIMSHO
 70
     1
  9
$DIMPOST
  1

  9
$DIMAPOST
  1

  9
$DIMALT
 70
     0
  9
$DIMALTD
 70
     2
  9
$DIMALTF
 40
25.4
  9
$DIMLFAC
 40
1.0
  9
$DIMTOFL
 70
     0
  9
$DIMTVP
 40
0.0
  9
$DIMTIX
 70
     0
  9
$DIMSOXD
 70
     0
  9
$DIMSAH
 70
     0
  9
$DIMBLK1
  1

  9
$DIMBLK2
  1

  9
$DIMSTYLE
  2
Standard
  9
$DIMCLRD
 70
     0
  9
$DIMCLRE
 70
     0
  9
$DIMCLRT
 70
     0
  9
$DIMTFAC
 40
1.0
  9
$DIMGAP
 40
0.09
  9
$DIMJUST
 70
     0
  9
$DIMSD1
 70
     0
  9
$DIMSD2
 70
     0
  9
$DIMTOLJ
 70
     1
  9
$DIMTZIN
 70
     0
  9
$DIMALTZ
 70
     0
  9
$DIMALTTZ
 70
     0
  9
$DIMUPT
 70
     0
  9
$DIMDEC
 70
     4
  9
$DIMTDEC
 70
     4
  9
$DIMALTU
 70
     2
  9
$DIMALTTD
 70
     2
  9
$DIMTXSTY
  7
Standard
  9
$DIMAUNIT
 70
     0
  9
$DIMADEC
 70
     0
  9
$DIMALTRND
 40
0.0
  9
$DIMAZIN
 70
     0
  9
$DIMDSEP
 70
    46
  9
$DIMATFIT
 70
     3
  9
$DIMFRAC
 70
     0
  9
$DIMLDRBLK
  1

  9
$DIMLUNIT
 70
     2
  9
$DIMLWD
 70
    -2
  9
$DIMLWE
 70
    -2
  9
$DIMTMOVE
 70
     0
  9
$LUNITS
 70
     2
  9
$LUPREC
 70
     4
  9
$SKETCHINC
 40
0.1
  9
$FILLETRAD
 40
0.5
  9
$AUNITS
 70
     0
  9
$AUPREC
 70
     0
  9
$MENU
  1
.
  9
$ELEVATION
 40
0.0
  9
$PELEVATION
 40
0.0
  9
$THICKNESS
 40
0.0
  9
$LIMCHECK
 70
     0
  9
$CHAMFERA
 40
0.5
  9
$CHAMFERB
 40
0.5
  9
$CHAMFERC
 40
1.0
  9
$CHAMFERD
 40
0.0
  9
$SKPOLY
 70
     0
  9
$TDCREATE
 40
2454775.49183412
  9
$TDUCREATE
 40
2454775.450167454
  9
$TDUPDATE
 40
2454775.491834132
  9
$TDUUPDATE
 40
2454775.450167465
  9
$TDINDWG
 40
0.0000000116
  9
$TDUSRTIMER
 40
0.0000000116
  9
$USRTIMER
 70
     1
  9
$ANGBASE
 50
0.0
  9
$ANGDIR
 70
     0
  9
$PDMODE
 70
     0
  9
$PDSIZE
 40
0.0
  9
$PLINEWID
 40
0.0
  9
$SPLFRAME
 70
     0
  9
$SPLINETYPE
 70
     6
  9
$SPLINESEGS
 70
     8
  9
$HANDSEED
  5
1FC
  9
$SURFTAB1
 70
     6
  9
$SURFTAB2
 70
     6
  9
$SURFTYPE
 70
     6
  9
$SURFU
 70
     6
  9
$SURFV
 70
     6
  9
$UCSBASE
  2

  9
$UCSNAME
  2

  9
$UCSORG
 10
0.0
 20
0.0
 30
0.0
  9
$UCSXDIR
 10
1.0
 20
0.0
 30
0.0
  9
$UCSYDIR
 10
0.0
 20
1.0
 30
0.0
  9
$UCSORTHOREF
  2

  9
$UCSORTHOVIEW
 70
     0
  9
$UCSORGTOP
 10
0.0
 20
0.0
 30
0.0
  9
$UCSORGBOTTOM
 10
0.0
 20
0.0
 30
0.0
  9
$UCSORGLEFT
 10
0.0
 20
0.0
 30
0.0
  9
$UCSORGRIGHT
 10
0.0
 20
0.0
 30
0.0
  9
$UCSORGFRONT
 10
0.0
 20
0.0
 30
0.0
  9
$UCSORGBACK
 10
0.0
 20
0.0
 30
0.0
  9
$PUCSBASE
  2

  9
$PUCSNAME
  2

  9
$PUCSORG
 10
0.0
 20
0.0
 30
0.0
  9
$PUCSXDIR
 10
1.0
 20
0.0
 30
0.0
  9
$PUCSYDIR
 10
0.0
 20
1.0
 30
0.0
  9
$PUCSORTHOREF
  2

  9
$PUCSORTHOVIEW
 70
     0
  9
$PUCSORGTOP
 10
0.0
 20
0.0
 30
0.0
  9
$PUCSORGBOTTOM
 10
0.0
 20
0.0
 30
0.0
  9
$PUCSORGLEFT
 10
0.0
 20
0.0
 30
0.0
  9
$PUCSORGRIGHT
 10
0.0
 20
0.0
 30
0.0
  9
$PUCSORGFRONT
 10
0.0
 20
0.0
 30
0.0
  9
$PUCSORGBACK
 10
0.0
 20
0.0
 30
0.0
  9
$USERI1
 70
     0
  9
$USERI2
 70
     0
  9
$USERI3
 70
     0
  9
$USERI4
 70
     0
  9
$USERI5
 70
     0
  9
$USERR1
 40
14.5
  9
$USERR2
 40
0.0
  9
$USERR3
 40
0.0
  9
$USERR4
 40
0.0
  9
$USERR5
 40
0.0
  9
$WORLDVIEW
 70
     1
  9
$SHADEDGE
 70
     3
  9
$SHADEDIF
 70
    70
  9
$TILEMODE
 70
     1
  9
$MAXACTVP
 70
    64
  9
$PINSBASE
 10
0.0
 20
0.0
 30
0.0
  9
$PLIMCHECK
 70
     0
  9
$PEXTMIN
 10
1.00000000000000E+20
 20
1.00000000000000E+20
 30
1.00000000000000E+20
  9
$PEXTMAX
 10
-1.00000000000000E+20
 20
-1.00000000000000E+20
 30
-1.00000000000000E+20
  9
$PLIMMIN
 10
0.0
 20
0.0
  9
$PLIMMAX
 10
12.0
 20
9.0
  9
$UNITMODE
 70
     0
  9
$VISRETAIN
 70
     1
  9
$PLINEGEN
 70
     0
  9
$PSLTSCALE
 70
     1
  9
$TREEDEPTH
 70
  3020
  9
$CMLSTYLE
  2
Standard
  9
$CMLJUST
 70
     0
  9
$CMLSCALE
 40
1.0
  9
$PROXYGRAPHICS
 70
     1
  9
$MEASUREMENT
 70
     1
  9
$CELWEIGHT
370
    -1
  9
$ENDCAPS
280
     0
  9
$JOINSTYLE
280
     0
  9
$LWDISPLAY
290
     0
  9
$INSUNITS
 70
     1
  9
$HYPERLINKBASE
  1

  9
$STYLESHEET
  1

  9
$XEDIT
290
     1
  9
$CEPSNTYPE
380
     0
  9
$PSTYLEMODE
290
     1
  9
$FINGERPRINTGUID
  2
{8AB7EF8B-6987-4E67-B044-B628B063F9CE}
  9
$VERSIONGUID
  2
{FAEB1C32-E019-11D5-929B-00C0DF256EC4}
  9
$EXTNAMES
290
     1
  9
$PSVPSCALE
 40
0.0
  9
$OLESTARTUP
290
     0
  9
$SORTENTS
280
   127
  9
$INDEXCTL
280
     0
  9
$HIDETEXT
280
     1
  9
$XCLIPFRAME
290
     0
  9
$HALOGAP
280
     0
  9
$OBSCOLOR
 70
   257
  9
$OBSLTYPE
280
     0
  9
$INTERSECTIONDISPLAY
280
     0
  9
$INTERSECTIONCOLOR
 70
   257
  9
$DIMASSOC
280
     2
  9
$PROJECTNAME
  1

  0
ENDSEC
  0
SECTION
  2
CLASSES
  0
CLASS
  1
ACDBDICTIONARYWDFLT
  2
AcDbDictionaryWithDefault
  3
ObjectDBX Classes
 90
        0
 91
        3
280
     0
281
     0
  0
CLASS
  1

  2
exOdDbCircle
  3

 90
        0
 91
        3
280
     0
281
     1
  0
ENDSEC
  0
SECTION
  2
TABLES
  0
TABLE
  2
VPORT
  5
8
330
0
100
AcDbSymbolTable
 70
     1
  0
VPORT
  5
29
330
8
100
AcDbSymbolTableRecord
100
AcDbViewportTableRecord
  2
*Active
 70
     0
 10
0.0
 20
0.0
 11
1.0
 21
1.0
 12
245.9152950121177
 22
221.1425590135893
 13
0.0
 23
0.0
 14
0.5
 24
0.5
 15
0.5
 25
0.5
 16
0.0
 26
0.0
 36
1.0
 17
0.0
 27
0.0
 37
0.0
 40
234.300391403048
 41
1.60267857142857
 42
50.0
 43
0.0
 44
0.0
 50
0.0
 51
0.0
 71
     0
 72
   100
 73
     1
 74
     3
 75
     0
 76
     0
 77
     0
 78
     0
281
     0
 65
     1
110
0.0
120
0.0
130
0.0
111
1.0
121
0.0
131
0.0
112
0.0
122
1.0
132
0.0
 79
     0
146
0.0
  0
ENDTAB
  0
TABLE
  2
LTYPE
  5
5
330
0
100
AcDbSymbolTable
 70
     8
  0
LTYPE
  5
14
330
5
100
AcDbSymbolTableRecord
100
AcDbLinetypeTableRecord
  2
ByBlock
 70
     0
  3

 72
    65
 73
     0
 40
0.0
  0
LTYPE
  5
15
330
5
100
AcDbSymbolTableRecord
100
AcDbLinetypeTableRecord
  2
ByLayer
 70
     0
  3

 72
    65
 73
     0
 40
0.0
  0
LTYPE
  5
16
330
5
100
AcDbSymbolTableRecord
100
AcDbLinetypeTableRecord
  2
Continuous
 70
     0
  3
Solid line
 72
    65
 73
     0
 40
0.0
  0
LTYPE
  5
2A
330
5
100
AcDbSymbolTableRecord
100
AcDbLinetypeTableRecord
  2
DASHED
 70
     0
  3
Dashed
 72
    65
 73
     2
 40
15.0
 49
7.0
 74
     0
 49
-8.0
 74
     0
  0
LTYPE
  5
2B
330
5
100
AcDbSymbolTableRecord
100
AcDbLinetypeTableRecord
  2
DOTTED
 70
     0
  3
Dotted
 72
    65
 73
     2
 40
1.0
 49
0.0
 74
     0
 49
-1.0
 74
     0
  0
LTYPE
  5
2C
330
5
100
AcDbSymbolTableRecord
100
AcDbLinetypeTableRecord
  2
DOT_CENTER
 70
     0
  3
Dot_Center
 72
    65
 73
     4
 40
14.0
 49
12.0
 74
     0
 49
-1.0
 74
     0
 49
0.0
 74
     0
 49
-1.0
 74
     0
  0
LTYPE
  5
2D
330
5
100
AcDbSymbolTableRecord
100
AcDbLinetypeTableRecord
  2
LONG_DASHED
 70
     0
  3
Long_Dashed
 72
    65
 73
     2
 40
15.0
 49
10.0
 74
     0
 49
-5.0
 74
     0
  0
LTYPE
  5
2E
330
5
100
AcDbSymbolTableRecord
100
AcDbLinetypeTableRecord
  2
DASH_CENTER
 70
     0
  3
Dash_Center
 72
    65
 73
     4
 40
14.0
 49
11.0
 74
     0
 49
-1.0
 74
     0
 49
1.0
 74
     0
 49
-1.0
 74
     0
  0
LTYPE
  5
2F
330
5
100
AcDbSymbolTableRecord
100
AcDbLinetypeTableRecord
  2
PHANTOM
 70
     0
  3
Phantom
 72
    65
 73
     6
 40
13.0
 49
10.0
 74
     0
 49
-1.0
 74
     0
 49
0.0
 74
     0
 49
-1.0
 74
     0
 49
0.0
 74
     0
 49
-1.0
 74
     0
  0
LTYPE
  5
30
330
5
100
AcDbSymbolTableRecord
100
AcDbLinetypeTableRecord
  2
CENTER_DASH_DASH
 70
     0
  3
Center_Dash_Dash
 72
    65
 73
     6
 40
14.0
 49
9.0
 74
     0
 49
-1.0
 74
     0
 49
1.0
 74
     0
 49
-1.0
 74
     0
 49
1.0
 74
     0
 49
-1.0
 74
     0
  0
ENDTAB
  0
TABLE
  2
LAYER
  5
2
330
0
100
AcDbSymbolTable
 70
     2
  0
LAYER
  5
10
330
2
100
AcDbSymbolTableRecord
100
AcDbLayerTableRecord
  2
0
 70
     0
 62
     7
  6
Continuous
370
    -3
390
F
  0
LAYER
  5
31
330
2
100
AcDbSymbolTableRecord
100
AcDbLayerTableRecord
  2
1
 70
     0
 62
     7
  6
Continuous
370
    -3
390
F
  0
ENDTAB
  0
TABLE
  2
STYLE
  5
3
330
0
100
AcDbSymbolTable
 70
     2
  0
STYLE
  5
11
330
3
100
AcDbSymbolTableRecord
100
AcDbTextStyleTableRecord
  2
Standard
 70
     0
 40
0.0
 41
1.0
 50
0.0
 71
     0
 42
0.2
  3
txt
  4

  0
STYLE
  5
1D6
330
3
100
AcDbSymbolTableRecord
100
AcDbTextStyleTableRecord
  2
CONVERTER_11
 70
     0
 40
0.0
 41
0.9
 50
0.0
 71
     0
 42
0.2
  3
txt.shx
  4

  0
ENDTAB
  0
TABLE
  2
VIEW
  5
6
330
0
100
AcDbSymbolTable
 70
     0
  0
ENDTAB
  0
TABLE
  2
UCS
  5
7
330
0
100
AcDbSymbolTable
 70
     0
  0
ENDTAB
  0
TABLE
  2
APPID
  5
9
330
0
100
AcDbSymbolTable
 70
     1
  0
APPID
  5
12
330
9
100
AcDbSymbolTableRecord
100
AcDbRegAppTableRecord
  2
ACAD
 70
     0
  0
ENDTAB
  0
TABLE
  2
DIMSTYLE
  5
A
330
0
100
AcDbSymbolTable
 70
     4
100
AcDbDimStyleTable
  0
DIMSTYLE
105
27
330
A
100
AcDbSymbolTableRecord
100
AcDbDimStyleTableRecord
  2
Standard
 70
     0
340
11
  0
DIMSTYLE
105
1DA
102
{ACAD_REACTORS
330
1DB
102
}
330
A
100
AcDbSymbolTableRecord
100
AcDbDimStyleTableRecord
  2
ME10_DIM_10
 70
     0
 41
3.5
 42
0.0
 44
2.0
 73
     0
 74
     0
 77
     1
 78
     8
140
3.5
147
2.0
172
     1
173
     1
176
     2
177
     2
178
     2
271
     3
340
1D6
  0
DIMSTYLE
105
1E5
102
{ACAD_REACTORS
330
1E6
102
}
330
A
100
AcDbSymbolTableRecord
100
AcDbDimStyleTableRecord
  2
ME10_DIM_11
 70
     0
 41
3.5
 42
0.0
 44
2.0
 73
     0
 74
     0
 77
     1
 78
     8
140
3.5
147
2.0
172
     1
173
     1
176
     2
177
     2
178
     2
271
     3
340
1D6
  0
DIMSTYLE
105
1F0
102
{ACAD_REACTORS
330
1F1
102
}
330
A
100
AcDbSymbolTableRecord
100
AcDbDimStyleTableRecord
  2
ME10_DIM_12
 70
     0
 41
3.5
 42
0.0
 44
2.0
 73
     0
 74
     0
 77
     1
 78
     8
140
3.5
147
2.0
172
     1
173
     1
176
     2
177
     2
178
     2
271
     3
340
1D6
  0
ENDTAB
  0
TABLE
  2
BLOCK_RECORD
  5
1
330
0
100
AcDbSymbolTable
 70
     5
  0
BLOCK_RECORD
  5
1F
330
1
100
AcDbSymbolTableRecord
100
AcDbBlockTableRecord
  2
*Model_Space
340
22
  0
BLOCK_RECORD
  5
1B
330
1
100
AcDbSymbolTableRecord
100
AcDbBlockTableRecord
  2
*Paper_Space
340
1E
  0
BLOCK_RECORD
  5
23
330
1
100
AcDbSymbolTableRecord
100
AcDbBlockTableRecord
  2
*Paper_Space0
340
26
  0
BLOCK_RECORD
  5
1D0
330
1
100
AcDbSymbolTableRecord
100
AcDbBlockTableRecord
  2
*D1
340
0
  0
BLOCK_RECORD
  5
1DC
330
1
100
AcDbSymbolTableRecord
100
AcDbBlockTableRecord
  2
*D2
340
0
  0
BLOCK_RECORD
  5
1E7
330
1
100
AcDbSymbolTableRecord
100
AcDbBlockTableRecord
  2
*D3
340
0
  0
BLOCK_RECORD
  5
1F2
330
1
100
AcDbSymbolTableRecord
100
AcDbBlockTableRecord
  2
*D4
340
0
102
{BLKREFS
331
1FB
102
}
  0
ENDTAB
  0
ENDSEC
  0
SECTION
  2
BLOCKS
  0
BLOCK
  5
20
330
1F
100
AcDbEntity
  8
0
100
AcDbBlockBegin
  2
*Model_Space
 70
     0
 71
     0
 10
0.0
 20
0.0
 30
0.0
  3
*Model_Space
  1

  0
ENDBLK
  5
21
330
1F
100
AcDbEntity
  8
0
100
AcDbBlockEnd
  0
BLOCK
  5
1C
330
1B
100
AcDbEntity
 67
     1
  8
0
100
AcDbBlockBegin
  2
*Paper_Space
 70
     0
 71
     0
 10
0.0
 20
0.0
 30
0.0
  3
*Paper_Space
  1

  0
ENDBLK
  5
1D
330
1B
100
AcDbEntity
 67
     1
  8
0
100
AcDbBlockEnd
  0
BLOCK
  5
24
330
23
100
AcDbEntity
  8
0
100
AcDbBlockBegin
  2
*Paper_Space0
 70
     0
 71
     0
 10
0.0
 20
0.0
 30
0.0
  3
*Paper_Space0
  1

  0
ENDBLK
  5
25
330
23
100
AcDbEntity
  8
0
100
AcDbBlockEnd
  0
BLOCK
  5
1D8
330
1D0
100
AcDbEntity
  8
0
100
AcDbBlockBegin
  2
*D1
 70
     1
 71
     0
 10
0.0
 20
0.0
 30
0.0
  3
*D1
  1

  0
LINE
  5
1D1
330
1D0
100
AcDbEntity
  8
1
  6
Continuous
 62
     2
100
AcDbLine
 10
199.1648240726422
 20
116.642381103113
 30
0.0
 11
230.9648240726305
 21
116.642381103113
 31
0.0
  0
LINE
  5
1D2
330
1D0
100
AcDbEntity
  8
1
  6
Continuous
 62
     2
100
AcDbLine
 10
230.9648240726305
 20
143.5427369240636
 30
0.0
 11
230.9648240726305
 21
114.642381103113
 31
0.0
  0
LINE
  5
1D3
330
1D0
100
AcDbEntity
  8
1
  6
Continuous
 62
     2
100
AcDbLine
 10
199.1648240726422
 20
143.5427369240621
 30
0.0
 11
199.1648240726422
 21
114.642381103113
 31
0.0
  0
SOLID
  5
1D4
330
1D0
100
AcDbEntity
  8
1
 62
     2
100
AcDbTrace
 10
202.6648240726422
 20
117.1031648446689
 30
0.0
 11
202.6648240726422
 21
116.1815973615571
 31
0.0
 12
199.1648240726422
 22
116.642381103113
 32
0.0
 13
199.1648240726422
 23
116.642381103113
 33
0.0
  0
SOLID
  5
1D5
330
1D0
100
AcDbEntity
  8
1
 62
     2
100
AcDbTrace
 10
227.4648240726305
 20
116.1815973615571
 30
0.0
 11
227.4648240726305
 21
117.1031648446689
 31
0.0
 12
230.9648240726305
 22
116.642381103113
 32
0.0
 13
230.9648240726305
 23
116.642381103113
 33
0.0
  0
MTEXT
  5
1D7
330
1D0
100
AcDbEntity
  8
1
 62
     2
100
AcDbMText
 10
211.453015881894
 20
118.642381103113
 30
0.0
 40
3.5
 41
0.0
 71
     7
 72
     1
  1
32
  7
CONVERTER_11
 11
0.9999999999970621
 21
2.424068405545307E-6
 31
0.0
 73
     1
 44
0.60024009603842
  0
ENDBLK
  5
1D9
330
1D0
100
AcDbEntity
  8
0
100
AcDbBlockEnd
  0
BLOCK
  5
1E3
330
1DC
100
AcDbEntity
  8
0
100
AcDbBlockBegin
  2
*D2
 70
     1
 71
     0
 10
0.0
 20
0.0
 30
0.0
  3
*D2
  1

  0
LINE
  5
1DD
330
1DC
100
AcDbEntity
  8
1
  6
Continuous
 62
     2
100
AcDbLine
 10
247.3928139176684
 20
116.642381103113
 30
0.0
 11
279.1928139176682
 21
116.642381103113
 31
0.0
  0
LINE
  5
1DE
330
1DC
100
AcDbEntity
  8
1
  6
Continuous
 62
     2
100
AcDbLine
 10
279.1928139176682
 20
143.5427369240659
 30
0.0
 11
279.1928139176682
 21
114.642381103113
 31
0.0
  0
LINE
  5
1DF
330
1DC
100
AcDbEntity
  8
1
  6
Continuous
 62
     2
100
AcDbLine
 10
247.3928139176684
 20
143.5427369240659
 30
0.0
 11
247.3928139176684
 21
114.642381103113
 31
0.0
  0
SOLID
  5
1E0
330
1DC
100
AcDbEntity
  8
1
 62
     2
100
AcDbTrace
 10
250.8928139176684
 20
117.1031648446689
 30
0.0
 11
250.8928139176684
 21
116.1815973615571
 31
0.0
 12
247.3928139176684
 22
116.642381103113
 32
0.0
 13
247.3928139176684
 23
116.642381103113
 33
0.0
  0
SOLID
  5
1E1
330
1DC
100
AcDbEntity
  8
1
 62
     2
100
AcDbTrace
 10
275.6928139176682
 20
116.1815973615571
 30
0.0
 11
275.6928139176682
 21
117.1031648446689
 31
0.0
 12
279.1928139176682
 22
116.642381103113
 32
0.0
 13
279.1928139176682
 23
116.642381103113
 33
0.0
  0
MTEXT
  5
1E2
330
1DC
100
AcDbEntity
  8
1
 62
     2
100
AcDbMText
 10
260.6678139176683
 20
118.642381103113
 30
0.0
 40
3.5
 41
0.0
 71
     7
 72
     1
  1
32
  7
CONVERTER_11
 11
0.9999999999970621
 21
2.424068405545307E-6
 31
0.0
 73
     1
 44
0.60024009603842
  0
ENDBLK
  5
1E4
330
1DC
100
AcDbEntity
  8
0
100
AcDbBlockEnd
  0
BLOCK
  5
1EE
330
1E7
100
AcDbEntity
  8
0
100
AcDbBlockBegin
  2
*D3
 70
     1
 71
     0
 10
0.0
 20
0.0
 30
0.0
  3
*D3
  1

  0
LINE
  5
1E8
330
1E7
100
AcDbEntity
  8
1
  6
Continuous
 62
     2
100
AcDbLine
 10
230.9648240726305
 20
116.642381103113
 30
0.0
 11
247.3928139176684
 21
116.642381103113
 31
0.0
  0
LINE
  5
1E9
330
1E7
100
AcDbEntity
  8
1
  6
Continuous
 62
     2
100
AcDbLine
 10
247.3928139176684
 20
143.5427369240659
 30
0.0
 11
247.3928139176684
 21
114.642381103113
 31
0.0
  0
LINE
  5
1EA
330
1E7
100
AcDbEntity
  8
1
  6
Continuous
 62
     2
100
AcDbLine
 10
230.9648240726305
 20
143.5427369240636
 30
0.0
 11
230.9648240726305
 21
114.642381103113
 31
0.0
  0
SOLID
  5
1EB
330
1E7
100
AcDbEntity
  8
1
 62
     2
100
AcDbTrace
 10
234.4648240726305
 20
117.1031648446689
 30
0.0
 11
234.4648240726305
 21
116.1815973615571
 31
0.0
 12
230.9648240726305
 22
116.642381103113
 32
0.0
 13
230.9648240726305
 23
116.642381103113
 33
0.0
  0
SOLID
  5
1EC
330
1E7
100
AcDbEntity
  8
1
 62
     2
100
AcDbTrace
 10
243.8928139176684
 20
116.1815973615571
 30
0.0
 11
243.8928139176684
 21
117.1031648446689
 31
0.0
 12
247.3928139176684
 22
116.642381103113
 32
0.0
 13
247.3928139176684
 23
116.642381103113
 33
0.0
  0
MTEXT
  5
1ED
330
1E7
100
AcDbEntity
  8
1
 62
     2
100
AcDbMText
 10
234.9350689951495
 20
118.642381103113
 30
0.0
 40
3.5
 41
0.0
 71
     7
 72
     1
  1
16.5
  7
CONVERTER_11
 11
0.9999999999970621
 21
2.424068405545307E-6
 31
0.0
 73
     1
 44
0.60024009603842
  0
ENDBLK
  5
1EF
330
1E7
100
AcDbEntity
  8
0
100
AcDbBlockEnd
  0
BLOCK
  5
1F9
330
1F2
100
AcDbEntity
  8
0
100
AcDbBlockBegin
  2
*D4
 70
     1
 71
     0
 10
0.0
 20
0.0
 30
0.0
  3
*D4
  1

  0
LINE
  5
1F3
330
1F2
100
AcDbEntity
  8
1
  6
Continuous
 62
     2
100
AcDbLine
 10
293.4454162644999
 20
327.6427369240657
 30
0.0
 11
293.4454162644999
 21
127.6427369240661
 31
0.0
  0
LINE
  5
1F4
330
1F2
100
AcDbEntity
  8
1
  6
Continuous
 62
     2
100
AcDbLine
 10
263.2928139176685
 20
327.6427369240657
 30
0.0
 11
295.4454162644999
 21
327.6427369240657
 31
0.0
  0
LINE
  5
1F5
330
1F2
100
AcDbEntity
  8
1
  6
Continuous
 62
     2
100
AcDbLine
 10
263.2928139176685
 20
127.6427369240661
 30
0.0
 11
295.4454162644999
 21
127.6427369240661
 31
0.0
  0
SOLID
  5
1F6
330
1F2
100
AcDbEntity
  8
1
 62
     2
100
AcDbTrace
 10
293.9062000060558
 20
324.1427369240657
 30
0.0
 11
292.984632522944
 21
324.1427369240657
 31
0.0
 12
293.4454162644999
 22
327.6427369240657
 32
0.0
 13
293.4454162644999
 23
327.6427369240657
 33
0.0
  0
SOLID
  5
1F7
330
1F2
100
AcDbEntity
  8
1
 62
     2
100
AcDbTrace
 10
292.984632522944
 20
131.1427369240661
 30
0.0
 11
293.9062000060558
 21
131.1427369240661
 31
0.0
 12
293.4454162644999
 22
127.6427369240661
 32
0.0
 13
293.4454162644999
 23
127.6427369240661
 33
0.0
  0
MTEXT
  5
1F8
330
1F2
100
AcDbEntity
  8
1
 62
     2
100
AcDbMText
 10
291.4454162644999
 20
224.9216102928444
 30
0.0
 40
3.5
 41
0.0
 71
     7
 72
     1
  1
200
  7
CONVERTER_11
 11
0.0
 21
1.0
 31
0.0
 73
     1
 44
0.60024009603842
  0
ENDBLK
  5
1FA
330
1F2
100
AcDbEntity
  8
0
100
AcDbBlockEnd
  0
ENDSEC
  0
SECTION
  2
ENTITIES
  0
LINE
  5
32
330
1F
100
AcDbEntity
  8
1
  6
Continuous
 62
     7
100
AcDbLine
 10
247.392813917673
 20
245.6427369240659
 30
0.0
 11
230.9648240726305
 21
245.6427369240658
 31
0.0
  0
LINE
  5
33
330
1F
100
AcDbEntity
  8
1
  6
Continuous
 62
     7
100
AcDbLine
 10
247.392813917673
 20
244.0427369240658
 30
0.0
 11
230.9648240726305
 21
244.0427369240658
 31
0.0
  0
LINE
  5
34
330
1F
100
AcDbEntity
  8
1
  6
Continuous
 62
     7
100
AcDbLine
 10
247.392813917673
 20
245.6427369240659
 30
0.0
 11
247.392813917673
 21
244.0427369240658
 31
0.0
  0
LINE
  5
35
330
1F
100
AcDbEntity
  8
1
  6
Continuous
 62
     7
100
AcDbLine
 10
247.392813917673
 20
209.6427369240659
 30
0.0
 11
256.0182891058036
 21
209.6427369240659
 31
0.0
  0
LINE
  5
36
330
1F
100
AcDbEntity
  8
1
  6
Continuous
 62
     7
100
AcDbLine
 10
247.392813917673
 20
211.2427369240658
 30
0.0
 11
230.9648240726305
 21
211.2427369240658
 31
0.0
  0
LINE
  5
37
330
1F
100
AcDbEntity
  8
1
  6
Continuous
 62
     7
100
AcDbLine
 10
247.392813917673
 20
211.2427369240658
 30
0.0
 11
247.392813917673
 21
209.6427369240659
 31
0.0
  0
LINE
  5
38
330
1F
100
AcDbEntity
  8
1
  6
Continuous
 62
     7
100
AcDbLine
 10
230.9648240726305
 20
209.6427369240659
 30
0.0
 11
247.392813917673
 21
209.6427369240659
 31
0.0
  0
LINE
  5
39
330
1F
100
AcDbEntity
  8
1
  6
Continuous
 62
     7
100
AcDbLine
 10
230.9648240726305
 20
211.2427369240658
 30
0.0
 11
222.5922585775127
 21
211.2427369240658
 31
0.0
  0
LINE
  5
3A
330
1F
100
AcDbEntity
  8
1
  6
Continuous
 62
     7
100
AcDbLine
 10
230.9648240726305
 20
211.2427369240658
 30
0.0
 11
230.9648240726305
 21
209.6427369240659
 31
0.0
  0
LINE
  5
3B
330
1F
100
AcDbEntity
  8
1
  6
Continuous
 62
     7
100
AcDbLine
 10
230.9648240726305
 20
245.6427369240658
 30
0.0
 11
224.680521305304
 21
245.6427369240658
 31
0.0
  0
LINE
  5
3C
330
1F
100
AcDbEntity
  8
1
  6
Continuous
 62
     7
100
AcDbLine
 10
230.9648240726305
 20
244.0427369240658
 30
0.0
 11
222.5922585775127
 21
244.0427369240658
 31
0.0
  0
LINE
  5
3D
330
1F
100
AcDbEntity
  8
1
  6
Continuous
 62
     7
100
AcDbLine
 10
230.9648240726305
 20
245.6427369240658
 30
0.0
 11
230.9648240726305
 21
244.0427369240658
 31
0.0
  0
LINE
  5
3E
330
1F
100
AcDbEntity
  8
1
  6
Continuous
 62
     7
100
AcDbLine
 10
278.1928139176626
 20
266.6427369240658
 30
0.0
 11
278.1928139176626
 21
270.6427369240658
 31
0.0
  0
LINE
  5
3F
330
1F
100
AcDbEntity
  8
1
  6
Continuous
 62
     7
100
AcDbLine
 10
248.3928139176684
 20
266.6427369240658
 30
0.0
 11
248.3928139176684
 21
270.6427369240658
 31
0.0
  0
LINE
  5
40
330
1F
100
AcDbEntity
  8
1
  6
Continuous
 62
     7
100
AcDbLine
 10
248.3928139176684
 20
193.6427369240658
 30
0.0
 11
248.3928139176684
 21
195.1427369240659
 31
0.0
  0
LINE
  5
41
330
1F
100
AcDbEntity
  8
1
  6
Continuous
 62
     7
100
AcDbLine
 10
278.1928139176626
 20
262.6427369240658
 30
0.0
 11
278.1928139176626
 21
266.6427369240658
 31
0.0
  0
LINE
  5
42
330
1F
100
AcDbEntity
  8
1
  6
Continuous
 62
     7
100
AcDbLine
 10
248.3928139176684
 20
261.6427369240658
 30
0.0
 11
248.3928139176684
 21
266.6427369240658
 31
0.0
  0
LINE
  5
43
330
1F
100
AcDbEntity
  8
1
  6
Continuous
 62
     7
100
AcDbLine
 10
230.9648240726305
 20
261.6427369240658
 30
0.0
 11
230.9648240726305
 21
270.6427369240658
 31
0.0
  0
LINE
  5
44
330
1F
100
AcDbEntity
  8
1
  6
Continuous
 62
     7
100
AcDbLine
 10
199.1648240726422
 20
262.6427369240658
 30
0.0
 11
199.1648240726422
 21
192.6427369240658
 31
0.0
  0
LINE
  5
45
330
1F
100
AcDbEntity
  8
1
  6
Continuous
 62
     7
100
AcDbLine
 10
199.1648240726422
 20
192.6427369240658
 30
0.0
 11
199.1648240726422
 21
184.6427369240658
 31
0.0
  0
LINE
  5
46
330
1F
100
AcDbEntity
  8
1
  6
Continuous
 62
     7
100
AcDbLine
 10
230.9648240726306
 20
193.6427369240658
 30
0.0
 11
230.9648240726306
 21
195.1427369240659
 31
0.0
  0
LINE
  5
47
330
1F
100
AcDbEntity
  8
1
  6
Continuous
 62
     7
100
AcDbLine
 10
248.3928139176684
 20
188.6427369240658
 30
0.0
 11
248.3928139176684
 21
193.6427369240658
 31
0.0
  0
LINE
  5
48
330
1F
100
AcDbEntity
  8
1
  6
Continuous
 62
     7
100
AcDbLine
 10
278.1928139176626
 20
188.6427369240658
 30
0.0
 11
278.1928139176626
 21
192.6427369240658
 31
0.0
  0
LINE
  5
49
330
1F
100
AcDbEntity
  8
1
  6
Continuous
 62
     7
100
AcDbLine
 10
278.1928139176626
 20
192.6427369240658
 30
0.0
 11
278.1928139176626
 21
262.6427369240658
 31
0.0
  0
LINE
  5
4A
330
1F
100
AcDbEntity
  8
1
  6
Continuous
 62
     7
100
AcDbLine
 10
219.564824072642
 20
193.6427369240658
 30
0.0
 11
219.2547893924732
 21
193.6427369240658
 31
0.0
  0
LINE
  5
4B
330
1F
100
AcDbEntity
  8
1
  6
Continuous
 62
     7
100
AcDbLine
 10
219.564824072642
 20
195.1427369240658
 30
0.0
 11
209.977085390205
 21
195.1427369240658
 31
0.0
  0
LINE
  5
4C
330
1F
100
AcDbEntity
  8
1
  6
Continuous
 62
     7
100
AcDbLine
 10
219.564824072642
 20
195.1427369240658
 30
0.0
 11
229.564824072642
 21
195.1427369240659
 31
0.0
  0
LINE
  5
4D
330
1F
100
AcDbEntity
  8
1
  6
Continuous
 62
     7
100
AcDbLine
 10
219.564824072642
 20
195.1427369240658
 30
0.0
 11
219.564824072642
 21
193.6427369240658
 31
0.0
  0
LINE
  5
4E
330
1F
100
AcDbEntity
  8
1
  6
Continuous
 62
     7
100
AcDbLine
 10
229.564824072642
 20
193.6427369240658
 30
0.0
 11
219.564824072642
 21
193.6427369240658
 31
0.0
  0
LINE
  5
4F
330
1F
100
AcDbEntity
  8
1
  6
Continuous
 62
     7
100
AcDbLine
 10
229.564824072642
 20
195.1427369240659
 30
0.0
 11
219.564824072642
 21
195.1427369240658
 31
0.0
  0
LINE
  5
50
330
1F
100
AcDbEntity
  8
1
  6
Continuous
 62
     7
100
AcDbLine
 10
229.564824072642
 20
195.1427369240659
 30
0.0
 11
229.9648240726306
 21
195.1427369240659
 31
0.0
  0
LINE
  5
51
330
1F
100
AcDbEntity
  8
1
  6
Continuous
 62
     7
100
AcDbLine
 10
229.564824072642
 20
195.1427369240659
 30
0.0
 11
229.564824072642
 21
193.6427369240658
 31
0.0
  0
LINE
  5
52
330
1F
100
AcDbEntity
  8
1
  6
Continuous
 62
     7
100
AcDbLine
 10
248.7928139176686
 20
195.1427369240659
 30
0.0
 11
248.3928139176684
 21
195.1427369240659
 31
0.0
  0
LINE
  5
53
330
1F
100
AcDbEntity
  8
1
  6
Continuous
 62
     7
100
AcDbLine
 10
248.7928139176686
 20
193.6427369240658
 30
0.0
 11
248.3928139176684
 21
193.6427369240658
 31
0.0
  0
LINE
  5
54
330
1F
100
AcDbEntity
  8
1
  6
Continuous
 62
     7
100
AcDbLine
 10
248.7928139176686
 20
195.1427369240659
 30
0.0
 11
248.7928139176686
 21
193.6427369240658
 31
0.0
  0
LINE
  5
55
330
1F
100
AcDbEntity
  8
1
  6
Continuous
 62
     7
100
AcDbLine
 10
258.7928139176686
 20
195.1427369240658
 30
0.0
 11
248.7928139176686
 21
195.1427369240659
 31
0.0
  0
LINE
  5
56
330
1F
100
AcDbEntity
  8
1
  6
Continuous
 62
     7
100
AcDbLine
 10
258.7928139176686
 20
195.1427369240658
 30
0.0
 11
268.3810616248362
 21
195.1427369240658
 31
0.0
  0
LINE
  5
57
330
1F
100
AcDbEntity
  8
1
  6
Continuous
 62
     7
100
AcDbLine
 10
258.7928139176686
 20
193.6427369240658
 30
0.0
 11
248.7928139176686
 21
193.6427369240658
 31
0.0
  0
LINE
  5
58
330
1F
100
AcDbEntity
  8
1
  6
Continuous
 62
     7
100
AcDbLine
 10
258.7928139176686
 20
195.1427369240658
 30
0.0
 11
258.7928139176686
 21
193.6427369240658
 31
0.0
  0
LINE
  5
59
330
1F
100
AcDbEntity
  8
1
  6
Continuous
 62
     7
100
AcDbLine
 10
258.7928139176686
 20
260.1427369240658
 30
0.0
 11
259.357394779925
 21
260.1427369240658
 31
0.0
  0
LINE
  5
5A
330
1F
100
AcDbEntity
  8
1
  6
Continuous
 62
     7
100
AcDbLine
 10
258.7928139176686
 20
261.6427369240658
 30
0.0
 11
259.1073947799252
 21
261.6427369240658
 31
0.0
  0
LINE
  5
5B
330
1F
100
AcDbEntity
  8
1
  6
Continuous
 62
     7
100
AcDbLine
 10
258.7928139176686
 20
260.1427369240658
 30
0.0
 11
258.7928139176686
 21
261.6427369240658
 31
0.0
  0
LINE
  5
5C
330
1F
100
AcDbEntity
  8
1
  6
Continuous
 62
     7
100
AcDbLine
 10
248.7928139176686
 20
260.1427369240658
 30
0.0
 11
258.7928139176686
 21
260.1427369240658
 31
0.0
  0
LINE
  5
5D
330
1F
100
AcDbEntity
  8
1
  6
Continuous
 62
     7
100
AcDbLine
 10
248.7928139176686
 20
261.6427369240658
 30
0.0
 11
258.7928139176686
 21
261.6427369240658
 31
0.0
  0
LINE
  5
5E
330
1F
100
AcDbEntity
  8
1
  6
Continuous
 62
     7
100
AcDbLine
 10
248.7928139176686
 20
260.1427369240658
 30
0.0
 11
248.7928139176686
 21
261.6427369240658
 31
0.0
  0
LINE
  5
5F
330
1F
100
AcDbEntity
  8
1
  6
Continuous
 62
     7
100
AcDbLine
 10
219.564824072642
 20
261.6427369240658
 30
0.0
 11
229.564824072642
 21
261.6427369240658
 31
0.0
  0
LINE
  5
60
330
1F
100
AcDbEntity
  8
1
  6
Continuous
 62
     7
100
AcDbLine
 10
219.564824072642
 20
260.1427369240658
 30
0.0
 11
229.564824072642
 21
260.1427369240658
 31
0.0
  0
LINE
  5
61
330
1F
100
AcDbEntity
  8
1
  6
Continuous
 62
     7
100
AcDbLine
 10
219.564824072642
 20
260.1427369240658
 30
0.0
 11
229.564824072642
 21
260.1427369240658
 31
0.0
  0
LINE
  5
62
330
1F
100
AcDbEntity
  8
1
  6
Continuous
 62
     7
100
AcDbLine
 10
219.564824072642
 20
260.1427369240658
 30
0.0
 11
219.564824072642
 21
261.6427369240658
 31
0.0
  0
LINE
  5
63
330
1F
100
AcDbEntity
  8
1
  6
Continuous
 62
     7
100
AcDbLine
 10
229.564824072642
 20
261.6427369240658
 30
0.0
 11
229.9648240726309
 21
261.6427369240658
 31
0.0
  0
LINE
  5
64
330
1F
100
AcDbEntity
  8
1
  6
Continuous
 62
     7
100
AcDbLine
 10
229.564824072642
 20
260.1427369240658
 30
0.0
 11
229.9648240726309
 21
260.1427369240658
 31
0.0
  0
LINE
  5
65
330
1F
100
AcDbEntity
  8
1
  6
Continuous
 62
     7
100
AcDbLine
 10
229.564824072642
 20
260.1427369240658
 30
0.0
 11
229.9648240726309
 21
260.1427369240658
 31
0.0
  0
LINE
  5
66
330
1F
100
AcDbEntity
  8
1
  6
Continuous
 62
     7
100
AcDbLine
 10
229.564824072642
 20
260.1427369240658
 30
0.0
 11
229.564824072642
 21
261.6427369240658
 31
0.0
  0
LINE
  5
67
330
1F
100
AcDbEntity
  8
1
  6
Continuous
 62
     7
100
AcDbLine
 10
248.3928139176684
 20
270.6427369240658
 30
0.0
 11
278.1928139176684
 21
270.6427369240658
 31
0.0
  0
LINE
  5
68
330
1F
100
AcDbEntity
  8
1
  6
Continuous
 62
     7
100
AcDbLine
 10
248.3928139176684
 20
260.1427369240658
 30
0.0
 11
248.7928139176686
 21
260.1427369240658
 31
0.0
  0
LINE
  5
69
330
1F
100
AcDbEntity
  8
1
  6
Continuous
 62
     7
100
AcDbLine
 10
248.3928139176684
 20
260.1427369240658
 30
0.0
 11
248.3928139176684
 21
261.6427369240658
 31
0.0
  0
LINE
  5
6A
330
1F
100
AcDbEntity
  8
1
  6
Continuous
 62
     7
100
AcDbLine
 10
229.9648240726309
 20
261.6427369240658
 30
0.0
 11
230.9648240726305
 21
261.6427369240658
 31
0.0
  0
LINE
  5
6B
330
1F
100
AcDbEntity
  8
1
  6
Continuous
 62
     7
100
AcDbLine
 10
229.9648240726309
 20
260.1427369240658
 30
0.0
 11
235.4846187562114
 21
260.1427369240658
 31
0.0
  0
LINE
  5
6C
330
1F
100
AcDbEntity
  8
1
  6
Continuous
 62
     7
100
AcDbLine
 10
229.9648240726309
 20
260.1427369240658
 30
0.0
 11
235.0686212175901
 21
260.1427369240658
 31
0.0
  0
LINE
  5
6D
330
1F
100
AcDbEntity
  8
1
  6
Continuous
 62
     7
100
AcDbLine
 10
229.9648240726309
 20
260.1427369240658
 30
0.0
 11
229.9648240726309
 21
261.6427369240658
 31
0.0
  0
LINE
  5
6E
330
1F
100
AcDbEntity
  8
1
  6
Continuous
 62
     7
100
AcDbLine
 10
230.9648240726305
 20
270.6427369240658
 30
0.0
 11
230.9648240726305
 21
281.6427369240669
 31
0.0
  0
LINE
  5
6F
330
1F
100
AcDbEntity
  8
1
  6
Continuous
 62
     7
100
AcDbLine
 10
230.3291507785193
 20
270.6427369240658
 30
0.0
 11
230.9648240726305
 21
270.6427369240658
 31
0.0
  0
LINE
  5
70
330
1F
100
AcDbEntity
  8
1
  6
Continuous
 62
     7
100
AcDbLine
 10
229.9648240726306
 20
193.6427369240658
 30
0.0
 11
229.564824072642
 21
193.6427369240658
 31
0.0
  0
LINE
  5
71
330
1F
100
AcDbEntity
  8
1
  6
Continuous
 62
     7
100
AcDbLine
 10
229.9648240726306
 20
195.1427369240659
 30
0.0
 11
229.564824072642
 21
195.1427369240659
 31
0.0
  0
LINE
  5
72
330
1F
100
AcDbEntity
  8
1
  6
Continuous
 62
     7
100
AcDbLine
 10
229.9648240726306
 20
195.1427369240659
 30
0.0
 11
235.0686212175901
 21
195.1427369240659
 31
0.0
  0
LINE
  5
73
330
1F
100
AcDbEntity
  8
1
  6
Continuous
 62
     7
100
AcDbLine
 10
229.9648240726306
 20
195.1427369240659
 30
0.0
 11
229.9648240726306
 21
193.6427369240658
 31
0.0
  0
LINE
  5
74
330
1F
100
AcDbEntity
  8
1
  6
Continuous
 62
     7
100
AcDbLine
 10
248.3928139176684
 20
184.6427369240658
 30
0.0
 11
247.3928139176684
 21
184.6427369240658
 31
0.0
  0
LINE
  5
75
330
1F
100
AcDbEntity
  8
1
  6
Continuous
 62
     7
100
AcDbLine
 10
248.3928139176684
 20
195.1427369240659
 30
0.0
 11
235.4846187562114
 21
195.1427369240659
 31
0.0
  0
LINE
  5
76
330
1F
100
AcDbEntity
  8
1
  6
Continuous
 62
     7
100
AcDbLine
 10
248.3928139176684
 20
184.6427369240658
 30
0.0
 11
248.3928139176684
 21
188.6427369240658
 31
0.0
  0
LINE
  5
77
330
1F
100
AcDbEntity
  8
1
  6
Continuous
 62
     7
100
AcDbLine
 10
247.3928139176684
 20
184.6427369240658
 30
0.0
 11
247.3928139176684
 21
195.1427369240659
 31
0.0
  0
LINE
  5
78
330
1F
100
AcDbEntity
  8
1
  6
Continuous
 62
     7
100
AcDbLine
 10
278.1928139176626
 20
184.6427369240658
 30
0.0
 11
248.3928139176684
 21
184.6427369240658
 31
0.0
  0
LINE
  5
79
330
1F
100
AcDbEntity
  8
1
  6
Continuous
 62
     7
100
AcDbLine
 10
230.9648240726305
 20
184.6427369240658
 30
0.0
 11
230.9648240726306
 21
193.6427369240658
 31
0.0
  0
LINE
  5
7A
330
1F
100
AcDbEntity
  8
1
  6
Continuous
 62
     7
100
AcDbLine
 10
200.1648240726422
 20
184.6427369240658
 30
0.0
 11
230.9648240726305
 21
184.6427369240658
 31
0.0
  0
LINE
  5
7B
330
1F
100
AcDbEntity
  8
1
  6
Continuous
 62
     7
100
AcDbLine
 10
200.1648240726422
 20
262.6427369240658
 30
0.0
 11
200.1648240726422
 21
192.6427369240658
 31
0.0
  0
LINE
  5
7C
330
1F
100
AcDbEntity
  8
1
  6
Continuous
 62
     7
100
AcDbLine
 10
204.4648240726305
 20
262.6427369240658
 30
0.0
 11
204.4648240726305
 21
260.1427369240658
 31
0.0
  0
LINE
  5
7D
330
1F
100
AcDbEntity
  8
1
  6
DOT_CENTER
 62
     2
100
AcDbLine
 10
196.3851737597355
 20
227.6427369240658
 30
0.0
 11
209.9770853902051
 21
227.6427369240658
 31
0.0
  0
LINE
  5
7E
330
1F
100
AcDbEntity
  8
1
  6
Continuous
 62
     7
100
AcDbLine
 10
230.9648240726305
 20
260.1427369240658
 30
0.0
 11
230.9648240726305
 21
261.6427369240658
 31
0.0
  0
LINE
  5
7F
330
1F
100
AcDbEntity
  8
1
  6
Continuous
 62
     7
100
AcDbLine
 10
204.4648240726305
 20
195.1427369240658
 30
0.0
 11
204.4648240726305
 21
192.6427369240658
 31
0.0
  0
LINE
  5
80
330
1F
100
AcDbEntity
  8
1
  6
Continuous
 62
     7
100
AcDbLine
 10
199.1648240726422
 20
262.1427369240658
 30
0.0
 11
200.1648240726422
 21
262.1427369240658
 31
0.0
  0
LINE
  5
81
330
1F
100
AcDbEntity
  8
1
  6
Continuous
 62
     7
100
AcDbLine
 10
199.1648240726422
 20
193.1427369240658
 30
0.0
 11
200.1648240726422
 21
193.1427369240658
 31
0.0
  0
LINE
  5
82
330
1F
100
AcDbEntity
  8
1
  6
Continuous
 62
     7
100
AcDbLine
 10
206.9648240726305
 20
258.1427369240658
 30
0.0
 11
206.9648240726305
 21
197.1427369240658
 31
0.0
  0
LINE
  5
83
330
1F
100
AcDbEntity
  8
1
  6
Continuous
 62
     7
100
AcDbLine
 10
204.9648240726305
 20
260.1427369240658
 30
0.0
 11
204.4648240726305
 21
260.1427369240658
 31
0.0
  0
LINE
  5
84
330
1F
100
AcDbEntity
  8
1
  6
Continuous
 62
     7
100
AcDbLine
 10
204.9648240726305
 20
195.1427369240658
 30
0.0
 11
204.4648240726305
 21
195.1427369240658
 31
0.0
  0
LINE
  5
85
330
1F
100
AcDbEntity
  8
1
  6
DOT_CENTER
 62
     2
100
AcDbLine
 10
213.2148240726305
 20
142.6427369240658
 30
0.0
 11
197.9148240726276
 21
142.6427369240658
 31
0.0
  0
LINE
  5
86
330
1F
100
AcDbEntity
  8
1
  6
DOT_CENTER
 62
     2
100
AcDbLine
 10
205.5648240726363
 20
150.2927369240657
 30
0.0
 11
205.5648240726363
 21
134.9927369240657
 31
0.0
  0
LINE
  5
87
330
1F
100
AcDbEntity
  8
1
  6
Continuous
 62
     7
100
AcDbLine
 10
230.9648240726305
 20
143.5427369240636
 30
0.0
 11
230.9648240726305
 21
184.6427369240658
 31
0.0
  0
LINE
  5
88
330
1F
100
AcDbEntity
  8
1
  6
DOT_CENTER
 62
     2
100
AcDbLine
 10
232.2148240726305
 20
142.6427369240658
 30
0.0
 11
216.9148240726276
 21
142.6427369240658
 31
0.0
  0
LINE
  5
89
330
1F
100
AcDbEntity
  8
1
  6
DOT_CENTER
 62
     2
100
AcDbLine
 10
224.5648240726363
 20
150.2927369240657
 30
0.0
 11
224.5648240726363
 21
134.9927369240657
 31
0.0
  0
LINE
  5
8A
330
1F
100
AcDbEntity
  8
1
  6
Continuous
 62
     7
100
AcDbLine
 10
199.1648240726422
 20
281.642736924067
 30
0.0
 11
199.1648240726422
 21
270.6427369240658
 31
0.0
  0
LINE
  5
8B
330
1F
100
AcDbEntity
  8
1
  6
Continuous
 62
     7
100
AcDbLine
 10
219.2284039453309
 20
192.6427369240656
 30
0.0
 11
219.2547893924734
 21
192.6427369240658
 31
0.0
  0
LINE
  5
8C
330
1F
100
AcDbEntity
  8
1
  6
Continuous
 62
     7
100
AcDbLine
 10
219.2547893924734
 20
192.6427369240658
 30
0.0
 11
219.2547893924732
 21
193.6427369240658
 31
0.0
  0
LINE
  5
8D
330
1F
100
AcDbEntity
  8
1
  6
Continuous
 62
     7
100
AcDbLine
 10
230.9648240726306
 20
193.6427369240658
 30
0.0
 11
229.9648240726306
 21
193.6427369240658
 31
0.0
  0
LINE
  5
8E
330
1F
100
AcDbEntity
  8
1
  6
Continuous
 62
     7
100
AcDbLine
 10
199.1648240726422
 20
192.6427369240658
 30
0.0
 11
219.2284039453309
 21
192.6427369240656
 31
0.0
  0
LINE
  5
8F
330
1F
100
AcDbEntity
  8
1
  6
Continuous
 62
     7
100
AcDbLine
 10
230.3291507785193
 20
270.6427369240658
 30
0.0
 11
204.5648240726363
 21
270.6427369240658
 31
0.0
  0
LINE
  5
90
330
1F
100
AcDbEntity
  8
1
  6
Continuous
 62
     7
100
AcDbLine
 10
219.2547893924732
 20
261.6427369240658
 30
0.0
 11
219.564824072642
 21
261.6427369240658
 31
0.0
  0
LINE
  5
91
330
1F
100
AcDbEntity
  8
1
  6
Continuous
 62
     7
100
AcDbLine
 10
219.2547893924732
 20
261.6427369240658
 30
0.0
 11
219.2547893924734
 21
262.6427369240658
 31
0.0
  0
LINE
  5
92
330
1F
100
AcDbEntity
  8
1
  6
Continuous
 62
     7
100
AcDbLine
 10
199.1648240726422
 20
270.6427369240658
 30
0.0
 11
204.5648240726363
 21
270.6427369240658
 31
0.0
  0
LINE
  5
93
330
1F
100
AcDbEntity
  8
1
  6
Continuous
 62
     7
100
AcDbLine
 10
219.2284039453309
 20
262.642736924066
 30
0.0
 11
199.1648240726422
 21
262.6427369240658
 31
0.0
  0
LINE
  5
94
330
1F
100
AcDbEntity
  8
1
  6
Continuous
 62
     7
100
AcDbLine
 10
219.2547893924734
 20
262.6427369240658
 30
0.0
 11
219.2284039453309
 21
262.642736924066
 31
0.0
  0
LINE
  5
95
330
1F
100
AcDbEntity
  8
1
  6
Continuous
 62
     7
100
AcDbLine
 10
230.9648240726305
 20
281.6427369240658
 30
0.0
 11
230.9648240726305
 21
292.6427369240658
 31
0.0
  0
LINE
  5
96
330
1F
100
AcDbEntity
  8
1
  6
Continuous
 62
     7
100
AcDbLine
 10
199.1648240726422
 20
311.7427369240695
 30
0.0
 11
199.1648240726422
 21
281.6427369240658
 31
0.0
  0
LINE
  5
97
330
1F
100
AcDbEntity
  8
1
  6
DOT_CENTER
 62
     2
100
AcDbLine
 10
224.5648240726363
 20
320.2927369240659
 30
0.0
 11
224.5648240726363
 21
304.9927369240659
 31
0.0
  0
LINE
  5
98
330
1F
100
AcDbEntity
  8
1
  6
DOT_CENTER
 62
     2
100
AcDbLine
 10
216.9148240726276
 20
312.6427369240658
 30
0.0
 11
232.2148240726305
 21
312.6427369240658
 31
0.0
  0
LINE
  5
99
330
1F
100
AcDbEntity
  8
1
  6
Continuous
 62
     7
100
AcDbLine
 10
200.1648240726422
 20
270.6427369240658
 30
0.0
 11
229.9648240726305
 21
270.6427369240658
 31
0.0
  0
LINE
  5
9A
330
1F
100
AcDbEntity
  8
1
  6
Continuous
 62
     7
100
AcDbLine
 10
230.9648240726305
 20
292.6427369240658
 30
0.0
 11
230.9648240726305
 21
311.742736924068
 31
0.0
  0
LINE
  5
9B
330
1F
100
AcDbEntity
  8
1
  6
DOT_CENTER
 62
     2
100
AcDbLine
 10
205.5648240726363
 20
320.2927369240659
 30
0.0
 11
205.5648240726363
 21
304.9927369240659
 31
0.0
  0
LINE
  5
9C
330
1F
100
AcDbEntity
  8
1
  6
DOT_CENTER
 62
     2
100
AcDbLine
 10
197.9148240726276
 20
312.6427369240658
 30
0.0
 11
213.2148240726305
 21
312.6427369240658
 31
0.0
  0
LINE
  5
9D
330
1F
100
AcDbEntity
  8
1
  6
Continuous
 62
     7
100
AcDbLine
 10
247.3928139176742
 20
281.642736924067
 30
0.0
 11
247.3928139176726
 21
260.1427369240659
 31
0.0
  0
LINE
  5
9E
330
1F
100
AcDbEntity
  8
1
  6
Continuous
 62
     7
100
AcDbLine
 10
278.1928139176626
 20
184.6427369240658
 30
0.0
 11
278.1928139176626
 21
188.6427369240658
 31
0.0
  0
LINE
  5
9F
330
1F
100
AcDbEntity
  8
1
  6
Continuous
 62
     7
100
AcDbLine
 10
278.1928139176626
 20
193.1427369240658
 30
0.0
 11
279.1928139176626
 21
193.1427369240658
 31
0.0
  0
LINE
  5
A0
330
1F
100
AcDbEntity
  8
1
  6
Continuous
 62
     7
100
AcDbLine
 10
278.1928139176626
 20
262.1427369240658
 30
0.0
 11
279.1928139176626
 21
262.1427369240658
 31
0.0
  0
LINE
  5
A1
330
1F
100
AcDbEntity
  8
1
  6
DOT_CENTER
 62
     2
100
AcDbLine
 10
268.3810616248361
 20
227.6427369240658
 30
0.0
 11
281.9724642305692
 21
227.6427369240658
 31
0.0
  0
LINE
  5
A2
330
1F
100
AcDbEntity
  8
1
  6
Continuous
 62
     7
100
AcDbLine
 10
279.1928139176624
 20
281.6427369240658
 30
0.0
 11
279.1928139176624
 21
290.6427369240658
 31
0.0
  0
LINE
  5
A3
330
1F
100
AcDbEntity
  8
1
  6
Continuous
 62
     7
100
AcDbLine
 10
247.3928139176596
 20
290.6427369240658
 30
0.0
 11
247.3928139176742
 21
281.6427369240658
 31
0.0
  0
LINE
  5
A4
330
1F
100
AcDbEntity
  8
1
  6
Continuous
 62
     7
100
AcDbLine
 10
247.3928139176726
 20
270.6427369240658
 30
0.0
 11
248.3928139176684
 21
270.6427369240658
 31
0.0
  0
LINE
  5
A5
330
1F
100
AcDbEntity
  8
1
  6
Continuous
 62
     7
100
AcDbLine
 10
247.3928139176684
 20
291.6427369240658
 30
0.0
 11
247.3928139176684
 21
311.7427369240656
 31
0.0
  0
LINE
  5
A6
330
1F
100
AcDbEntity
  8
1
  6
Continuous
 62
     7
100
AcDbLine
 10
279.1928139176685
 20
291.6427369240658
 30
0.0
 11
279.1928139176685
 21
283.6427369240658
 31
0.0
  0
LINE
  5
A7
330
1F
100
AcDbEntity
  8
1
  6
DASHED
 62
     2
100
AcDbLine
 10
249.0428139176684
 20
298.6427369240658
 30
0.0
 11
249.0428139176684
 21
292.6427369240658
 31
0.0
  0
LINE
  5
A8
330
1F
100
AcDbEntity
  8
1
  6
DASHED
 62
     2
100
AcDbLine
 10
257.5428139176684
 20
292.6427369240658
 30
0.0
 11
257.5428139176684
 21
298.6427369240658
 31
0.0
  0
LINE
  5
A9
330
1F
100
AcDbEntity
  8
1
  6
DASHED
 62
     2
100
AcDbLine
 10
269.0428139176684
 20
292.6427369240658
 30
0.0
 11
269.0428139176684
 21
298.6427369240658
 31
0.0
  0
LINE
  5
AA
330
1F
100
AcDbEntity
  8
1
  6
DOT_CENTER
 62
     2
100
AcDbLine
 10
246.5428139176685
 20
292.6427369240658
 30
0.0
 11
250.6928139176685
 21
292.6427369240658
 31
0.0
  0
LINE
  5
AB
330
1F
100
AcDbEntity
  8
1
  6
DASHED
 62
     2
100
AcDbLine
 10
277.5428139176684
 20
298.6427369240658
 30
0.0
 11
277.5428139176684
 21
292.6427369240658
 31
0.0
  0
LINE
  5
AC
330
1F
100
AcDbEntity
  8
1
  6
DOT_CENTER
 62
     2
100
AcDbLine
 10
246.5428139176684
 20
298.6427369240658
 30
0.0
 11
250.6928139176686
 21
298.6427369240658
 31
0.0
  0
LINE
  5
AD
330
1F
100
AcDbEntity
  8
1
  6
DOT_CENTER
 62
     2
100
AcDbLine
 10
253.2928139176684
 20
305.1773829895897
 30
0.0
 11
253.2928139176684
 21
286.3927369240658
 31
0.0
  0
LINE
  5
AE
330
1F
100
AcDbEntity
  8
1
  6
DOT_CENTER
 62
     2
100
AcDbLine
 10
273.2928139176684
 20
305.1773829895897
 30
0.0
 11
273.2928139176684
 21
286.3927369240658
 31
0.0
  0
LINE
  5
AF
330
1F
100
AcDbEntity
  8
1
  6
Continuous
 62
     7
100
AcDbLine
 10
247.3928139176684
 20
283.6427369240658
 30
0.0
 11
247.3928139176684
 21
291.6427369240658
 31
0.0
  0
LINE
  5
B0
330
1F
100
AcDbEntity
  8
1
  6
DOT_CENTER
 62
     2
100
AcDbLine
 10
279.4541185261014
 20
312.6427369240658
 30
0.0
 11
265.8373055649103
 21
312.6427369240658
 31
0.0
  0
LINE
  5
B1
330
1F
100
AcDbEntity
  8
1
  6
DOT_CENTER
 62
     2
100
AcDbLine
 10
272.2928139176684
 20
319.2931150058547
 30
0.0
 11
272.2928139176684
 21
305.5760946531949
 31
0.0
  0
LINE
  5
B2
330
1F
100
AcDbEntity
  8
1
  6
DOT_CENTER
 62
     2
100
AcDbLine
 10
260.4541185261014
 20
312.6427369240658
 30
0.0
 11
246.8373055649103
 21
312.6427369240658
 31
0.0
  0
LINE
  5
B3
330
1F
100
AcDbEntity
  8
1
  6
Continuous
 62
     7
100
AcDbLine
 10
279.1928139176682
 20
311.7427369240656
 30
0.0
 11
279.1928139176685
 21
291.6427369240658
 31
0.0
  0
LINE
  5
B4
330
1F
100
AcDbEntity
  8
1
  6
Continuous
 62
     7
100
AcDbLine
 10
248.3928139176684
 20
266.6427369240658
 30
0.0
 11
278.1928139176626
 21
266.6427369240658
 31
0.0
  0
LINE
  5
B5
330
1F
100
AcDbEntity
  8
1
  6
Continuous
 62
     7
100
AcDbLine
 10
273.5428139176684
 20
270.6427369240658
 30
0.0
 11
278.1928139176626
 21
270.6427369240658
 31
0.0
  0
LINE
  5
B6
330
1F
100
AcDbEntity
  8
1
  6
Continuous
 62
     7
100
AcDbLine
 10
278.1928139176626
 20
262.6427369240658
 30
0.0
 11
259.107394779925
 21
262.6427369240658
 31
0.0
  0
LINE
  5
B7
330
1F
100
AcDbEntity
  8
1
  6
Continuous
 62
     7
100
AcDbLine
 10
259.107394779925
 20
262.6427369240658
 30
0.0
 11
259.1073947799252
 21
261.6427369240658
 31
0.0
  0
LINE
  5
B8
330
1F
100
AcDbEntity
  8
1
  6
Continuous
 62
     7
100
AcDbLine
 10
248.3928139176684
 20
261.6427369240658
 30
0.0
 11
248.7928139176686
 21
261.6427369240658
 31
0.0
  0
LINE
  5
B9
330
1F
100
AcDbEntity
  8
1
  6
Continuous
 62
     7
100
AcDbLine
 10
273.5428139176684
 20
270.6427369240658
 30
0.0
 11
248.7784872117914
 21
270.6427369240658
 31
0.0
  0
LINE
  5
BA
330
1F
100
AcDbEntity
  8
1
  6
Continuous
 62
     7
100
AcDbLine
 10
235.4846187562114
 20
260.1427369240658
 30
0.0
 11
248.3928139176684
 21
260.1427369240658
 31
0.0
  0
LINE
  5
BB
330
1F
100
AcDbEntity
  8
1
  6
Continuous
 62
     7
100
AcDbLine
 10
235.4846187562114
 20
195.1427369240659
 30
0.0
 11
229.9648240726306
 21
195.1427369240659
 31
0.0
  0
LINE
  5
BC
330
1F
100
AcDbEntity
  8
1
  6
Continuous
 62
     7
100
AcDbLine
 10
259.3573947799251
 20
195.1427369240659
 30
0.0
 11
258.7928139176686
 21
195.1427369240658
 31
0.0
  0
LINE
  5
BD
330
1F
100
AcDbEntity
  8
1
  6
Continuous
 62
     7
100
AcDbLine
 10
209.9770853902052
 20
260.1427369240658
 30
0.0
 11
219.564824072642
 21
260.1427369240658
 31
0.0
  0
LINE
  5
BE
330
1F
100
AcDbEntity
  8
1
  6
DOT_CENTER
 62
     2
100
AcDbLine
 10
213.9770853902052
 20
262.4731373368705
 30
0.0
 11
213.9770853902053
 21
192.8123365112612
 31
0.0
  0
LINE
  5
BF
330
1F
100
AcDbEntity
  8
1
  6
DOT_CENTER
 62
     2
100
AcDbLine
 10
209.9770853902051
 20
227.6427369240658
 30
0.0
 11
239.1846187562114
 21
227.6427369240658
 31
0.0
  0
LINE
  5
C0
330
1F
100
AcDbEntity
  8
1
  6
Continuous
 62
     7
100
AcDbLine
 10
209.977085390205
 20
195.1427369240658
 30
0.0
 11
209.9770853902052
 21
260.1427369240658
 31
0.0
  0
LINE
  5
C1
330
1F
100
AcDbEntity
  8
1
  6
DOT_CENTER
 62
     2
100
AcDbLine
 10
239.1846187562115
 20
209.6427369240659
 30
0.0
 11
239.1846187562115
 21
192.8123365112611
 31
0.0
  0
LINE
  5
C2
330
1F
100
AcDbEntity
  8
1
  6
DOT_CENTER
 62
     2
100
AcDbLine
 10
239.1846187562114
 20
262.4731373368705
 30
0.0
 11
239.1846187562114
 21
245.6427369240659
 31
0.0
  0
LINE
  5
C3
330
1F
100
AcDbEntity
  8
1
  6
Continuous
 62
     7
100
AcDbLine
 10
222.1805213053041
 20
212.1427369240658
 30
0.0
 11
222.1805213053042
 21
243.1427369240658
 31
0.0
  0
LINE
  5
C4
330
1F
100
AcDbEntity
  8
1
  6
Continuous
 62
     7
100
AcDbLine
 10
224.6805213053041
 20
209.6427369240659
 30
0.0
 11
230.9648240726305
 21
209.6427369240659
 31
0.0
  0
LINE
  5
C5
330
1F
100
AcDbEntity
  8
1
  6
Continuous
 62
     7
100
AcDbLine
 10
256.0182891058038
 20
245.6427369240659
 30
0.0
 11
247.392813917673
 21
245.6427369240659
 31
0.0
  0
LINE
  5
C6
330
1F
100
AcDbEntity
  8
0
  6
Continuous
 62
     7
100
AcDbLine
 10
259.1073947799251
 20
193.6427369240658
 30
0.0
 11
259.1073947799251
 21
194.1427369240656
 31
0.0
  0
LINE
  5
C7
330
1F
100
AcDbEntity
  8
0
  6
Continuous
 62
     7
100
AcDbLine
 10
259.1073947799251
 20
260.1427369240658
 30
0.0
 11
259.1073947799252
 21
261.1427369240658
 31
0.0
  0
LINE
  5
C8
330
1F
100
AcDbEntity
  8
1
  6
Continuous
 62
     7
100
AcDbLine
 10
209.2270853902052
 20
195.1427369240656
 30
0.0
 11
209.2270853902052
 21
194.1427369240656
 31
0.0
  0
LINE
  5
C9
330
1F
100
AcDbEntity
  8
1
  6
Continuous
 62
     7
100
AcDbLine
 10
218.7270853902052
 20
194.1427369240656
 30
0.0
 11
218.7270853902052
 21
195.1427369240656
 31
0.0
  0
LINE
  5
CA
330
1F
100
AcDbEntity
  8
1
  6
Continuous
 62
     7
100
AcDbLine
 10
209.2270853902052
 20
195.1427369240656
 30
0.0
 11
218.7270853902052
 21
195.1427369240656
 31
0.0
  0
LINE
  5
CB
330
1F
100
AcDbEntity
  8
1
  6
Continuous
 62
     7
100
AcDbLine
 10
218.7270853902052
 20
260.1427369240658
 30
0.0
 11
209.2270853902052
 21
260.1427369240658
 31
0.0
  0
LINE
  5
CC
330
1F
100
AcDbEntity
  8
1
  6
Continuous
 62
     7
100
AcDbLine
 10
218.7270853902052
 20
260.1427369240658
 30
0.0
 11
218.7270853902052
 21
261.1427369240658
 31
0.0
  0
LINE
  5
CD
330
1F
100
AcDbEntity
  8
1
  6
Continuous
 62
     7
100
AcDbLine
 10
209.2270853902052
 20
261.1427369240658
 30
0.0
 11
209.2270853902052
 21
260.1427369240658
 31
0.0
  0
LINE
  5
CE
330
1F
100
AcDbEntity
  8
1
  6
Continuous
 62
     7
100
AcDbLine
 10
253.6859083478656
 20
211.2427369240658
 30
0.0
 11
247.392813917673
 21
211.2427369240658
 31
0.0
  0
LINE
  5
CF
330
1F
100
AcDbEntity
  8
1
  6
Continuous
 62
     7
100
AcDbLine
 10
253.6859083478656
 20
244.0427369240658
 30
0.0
 11
247.392813917673
 21
244.0427369240658
 31
0.0
  0
LINE
  5
D0
330
1F
100
AcDbEntity
  8
1
  6
Continuous
 62
     7
100
AcDbLine
 10
258.7928139176686
 20
260.1427369240658
 30
0.0
 11
268.3810616248362
 21
260.1427369240658
 31
0.0
  0
LINE
  5
D1
330
1F
100
AcDbEntity
  8
1
  6
Continuous
 62
     7
100
AcDbLine
 10
219.0047893924734
 20
260.1427369240658
 30
0.0
 11
219.564824072642
 21
260.1427369240658
 31
0.0
  0
LINE
  5
D2
330
1F
100
AcDbEntity
  8
1
  6
Continuous
 62
     7
100
AcDbLine
 10
268.3810616248362
 20
260.1427369240658
 30
0.0
 11
268.3810616248362
 21
195.1427369240658
 31
0.0
  0
LINE
  5
D3
330
1F
100
AcDbEntity
  8
1
  6
Continuous
 62
     7
100
AcDbLine
 10
256.1859083478656
 20
195.1427369240658
 30
0.0
 11
258.7928139176686
 21
195.1427369240658
 31
0.0
  0
LINE
  5
D4
330
1F
100
AcDbEntity
  8
1
  6
Continuous
 62
     7
100
AcDbLine
 10
256.1859083478656
 20
195.1427369240658
 30
0.0
 11
256.1859083478656
 21
208.7427369240659
 31
0.0
  0
LINE
  5
D5
330
1F
100
AcDbEntity
  8
1
  6
Continuous
 62
     7
100
AcDbLine
 10
256.1859083478656
 20
260.1427369240658
 30
0.0
 11
258.7928139176686
 21
260.1427369240658
 31
0.0
  0
LINE
  5
D6
330
1F
100
AcDbEntity
  8
1
  6
DOT_CENTER
 62
     2
100
AcDbLine
 10
239.1846187562114
 20
211.2427369240658
 30
0.0
 11
239.1846187562114
 21
244.0427369240658
 31
0.0
  0
LINE
  5
D7
330
1F
100
AcDbEntity
  8
1
  6
DOT_CENTER
 62
     2
100
AcDbLine
 10
239.1846187562114
 20
227.6427369240658
 30
0.0
 11
268.3810616248361
 21
227.6427369240658
 31
0.0
  0
LINE
  5
D8
330
1F
100
AcDbEntity
  8
1
  6
Continuous
 62
     7
100
AcDbLine
 10
256.1859083478656
 20
260.1427369240658
 30
0.0
 11
256.1859083478656
 21
246.5427369240658
 31
0.0
  0
LINE
  5
D9
330
1F
100
AcDbEntity
  8
1
  6
Continuous
 62
     7
100
AcDbLine
 10
222.5922585775127
 20
211.2427369240658
 30
0.0
 11
222.5922585775127
 21
210.7682701984893
 31
0.0
  0
LINE
  5
DA
330
1F
100
AcDbEntity
  8
1
  6
Continuous
 62
     7
100
AcDbLine
 10
219.0047893924734
 20
195.1427369240658
 30
0.0
 11
219.564824072642
 21
195.1427369240658
 31
0.0
  0
LINE
  5
DB
330
1F
100
AcDbEntity
  8
1
  6
Continuous
 62
     7
100
AcDbLine
 10
222.5922585775127
 20
244.5172036496422
 30
0.0
 11
222.5922585775127
 21
244.0427369240658
 31
0.0
  0
LINE
  5
DC
330
1F
100
AcDbEntity
  8
1
  6
Continuous
 62
     7
100
AcDbLine
 10
259.6310616248362
 20
261.1427369240658
 30
0.0
 11
259.6310616248362
 21
260.1427369240658
 31
0.0
  0
LINE
  5
DD
330
1F
100
AcDbEntity
  8
1
  6
Continuous
 62
     7
100
AcDbLine
 10
269.1310616248362
 20
260.1427369240658
 30
0.0
 11
269.1310616248362
 21
261.1427369240658
 31
0.0
  0
LINE
  5
DE
330
1F
100
AcDbEntity
  8
1
  6
Continuous
 62
     7
100
AcDbLine
 10
269.1310616248362
 20
260.1427369240658
 30
0.0
 11
259.6310616248362
 21
260.1427369240658
 31
0.0
  0
LINE
  5
DF
330
1F
100
AcDbEntity
  8
1
  6
Continuous
 62
     7
100
AcDbLine
 10
259.6310616248362
 20
195.1427369240658
 30
0.0
 11
269.1310616248362
 21
195.1427369240658
 31
0.0
  0
LINE
  5
E0
330
1F
100
AcDbEntity
  8
1
  6
Continuous
 62
     7
100
AcDbLine
 10
269.1310616248362
 20
194.1427369240658
 30
0.0
 11
269.1310616248362
 21
195.1427369240658
 31
0.0
  0
LINE
  5
E1
330
1F
100
AcDbEntity
  8
1
  6
Continuous
 62
     7
100
AcDbLine
 10
259.6310616248362
 20
195.1427369240658
 30
0.0
 11
259.6310616248362
 21
194.1427369240658
 31
0.0
  0
LINE
  5
E2
330
1F
100
AcDbEntity
  8
0
  6
Continuous
 62
     7
100
AcDbLine
 10
219.2547893924732
 20
261.6427369240658
 30
0.0
 11
219.2547893924733
 21
261.1427369240658
 31
0.0
  0
LINE
  5
E3
330
1F
100
AcDbEntity
  8
0
  6
Continuous
 62
     7
100
AcDbLine
 10
219.2547893924734
 20
195.1427369240658
 30
0.0
 11
219.2547893924733
 21
194.1427369240656
 31
0.0
  0
LINE
  5
E4
330
1F
100
AcDbEntity
  8
0
  6
Continuous
 62
     7
100
AcDbLine
 10
234.1846187562114
 20
245.642736924066
 30
0.0
 11
234.1846187562114
 21
244.0427369240658
 31
0.0
  0
LINE
  5
E5
330
1F
100
AcDbEntity
  8
0
  6
Continuous
 62
     7
100
AcDbLine
 10
244.1846187562114
 20
244.0427369240658
 30
0.0
 11
244.1846187562114
 21
245.642736924066
 31
0.0
  0
LINE
  5
E6
330
1F
100
AcDbEntity
  8
0
  6
Continuous
 62
     7
100
AcDbLine
 10
234.1846187562114
 20
245.642736924066
 30
0.0
 11
244.1846187562114
 21
245.642736924066
 31
0.0
  0
LINE
  5
E7
330
1F
100
AcDbEntity
  8
0
  6
Continuous
 62
     7
100
AcDbLine
 10
244.1846187562114
 20
209.6427369240659
 30
0.0
 11
244.1846187562114
 21
211.2427369240658
 31
0.0
  0
LINE
  5
E8
330
1F
100
AcDbEntity
  8
0
  6
Continuous
 62
     7
100
AcDbLine
 10
234.1846187562114
 20
211.2427369240658
 30
0.0
 11
234.1846187562114
 21
209.6427369240659
 31
0.0
  0
LINE
  5
E9
330
1F
100
AcDbEntity
  8
0
  6
Continuous
 62
     7
100
AcDbLine
 10
244.1846187562114
 20
209.6427369240659
 30
0.0
 11
234.1846187562114
 21
209.6427369240659
 31
0.0
  0
LINE
  5
EA
330
1F
100
AcDbEntity
  8
1
  6
DOT_CENTER
 62
     2
100
AcDbLine
 10
239.1846187562114
 20
244.0927369240658
 30
0.0
 11
239.1846187562114
 21
245.6427369240659
 31
0.0
  0
LINE
  5
EB
330
1F
100
AcDbEntity
  8
1
  6
DOT_CENTER
 62
     2
100
AcDbLine
 10
239.1846187562114
 20
211.1927369240658
 30
0.0
 11
239.1846187562115
 21
209.6427369240659
 31
0.0
  0
LINE
  5
EC
330
1F
100
AcDbEntity
  8
1
  6
Continuous
 62
     7
100
AcDbLine
 10
243.2346187562114
 20
194.7927369240657
 30
0.0
 11
235.1346187562113
 21
194.7927369240657
 31
0.0
  0
LINE
  5
ED
330
1F
100
AcDbEntity
  8
1
  6
Continuous
 62
     7
100
AcDbLine
 10
243.2346187562114
 20
194.7927369240657
 30
0.0
 11
242.8846187562113
 21
195.1427369240659
 31
0.0
  0
LINE
  5
EE
330
1F
100
AcDbEntity
  8
1
  6
Continuous
 62
     7
100
AcDbLine
 10
235.4846187562114
 20
195.1427369240659
 30
0.0
 11
235.1346187562113
 21
194.7927369240657
 31
0.0
  0
LINE
  5
EF
330
1F
100
AcDbEntity
  8
1
  6
Continuous
 62
     7
100
AcDbLine
 10
235.1346187562113
 20
260.4927369240659
 30
0.0
 11
235.4846187562114
 21
260.1427369240658
 31
0.0
  0
LINE
  5
F0
330
1F
100
AcDbEntity
  8
1
  6
Continuous
 62
     7
100
AcDbLine
 10
242.8846187562113
 20
260.1427369240658
 30
0.0
 11
243.2346187562114
 21
260.4927369240659
 31
0.0
  0
LINE
  5
F1
330
1F
100
AcDbEntity
  8
1
  6
Continuous
 62
     7
100
AcDbLine
 10
235.1346187562113
 20
260.4927369240659
 30
0.0
 11
243.2346187562114
 21
260.4927369240659
 31
0.0
  0
LINE
  5
F2
330
1F
100
AcDbEntity
  8
1
  6
DOT_CENTER
 62
     2
100
AcDbLine
 10
264.3810616248362
 20
195.5427369240657
 30
0.0
 11
264.3810616248362
 21
186.7901086288719
 31
0.0
  0
LINE
  5
F3
330
1F
100
AcDbEntity
  8
0
  6
Continuous
 62
     7
100
AcDbLine
 10
207.8198878628859
 20
194.1427369240656
 30
0.0
 11
219.2547893924733
 21
194.1427369240656
 31
0.0
  0
LINE
  5
F4
330
1F
100
AcDbEntity
  8
1
  6
DOT_CENTER
 62
     2
100
AcDbLine
 10
213.9770853902054
 20
186.7901086288719
 30
0.0
 11
213.9770853902054
 21
195.5427369240657
 31
0.0
  0
LINE
  5
F5
330
1F
100
AcDbEntity
  8
0
  6
Continuous
 62
     7
100
AcDbLine
 10
207.8198878628859
 20
194.1427369240656
 30
0.0
 11
207.8198878628859
 21
192.6427369240656
 31
0.0
  0
LINE
  5
F6
330
1F
100
AcDbEntity
  8
0
  6
Continuous
 62
     7
100
AcDbLine
 10
207.8198878628859
 20
262.6427369240658
 30
0.0
 11
207.8198878628859
 21
261.1427369240658
 31
0.0
  0
LINE
  5
F7
330
1F
100
AcDbEntity
  8
1
  6
DOT_CENTER
 62
     2
100
AcDbLine
 10
213.9770853902054
 20
261.1427369240658
 30
0.0
 11
213.9770853902054
 21
268.4953652192597
 31
0.0
  0
LINE
  5
F8
330
1F
100
AcDbEntity
  8
0
  6
Continuous
 62
     7
100
AcDbLine
 10
270.5382591521557
 20
192.6427369240656
 30
0.0
 11
270.5382591521557
 21
194.1427369240656
 31
0.0
  0
LINE
  5
F9
330
1F
100
AcDbEntity
  8
0
  6
Continuous
 62
     7
100
AcDbLine
 10
259.1073947799251
 20
194.1427369240656
 30
0.0
 11
270.5382591521557
 21
194.1427369240656
 31
0.0
  0
LINE
  5
FA
330
1F
100
AcDbEntity
  8
1
  6
DOT_CENTER
 62
     2
100
AcDbLine
 10
264.3810616248362
 20
268.4953652192597
 30
0.0
 11
264.3810616248362
 21
259.7427369240659
 31
0.0
  0
LINE
  5
FB
330
1F
100
AcDbEntity
  8
0
  6
Continuous
 62
     7
100
AcDbLine
 10
270.5382591521557
 20
261.1427369240658
 30
0.0
 11
270.5382591521557
 21
262.6427369240658
 31
0.0
  0
LINE
  5
FC
330
1F
100
AcDbEntity
  8
1
  6
Continuous
 62
     7
100
AcDbLine
 10
259.1073947799251
 20
193.6427369240658
 30
0.0
 11
259.107394779925
 21
192.6427369240658
 31
0.0
  0
LINE
  5
FD
330
1F
100
AcDbEntity
  8
1
  6
Continuous
 62
     7
100
AcDbLine
 10
259.107394779925
 20
192.6427369240658
 30
0.0
 11
278.1928139176626
 21
192.6427369240658
 31
0.0
  0
LINE
  5
FE
330
1F
100
AcDbEntity
  8
1
  6
Continuous
 62
     7
100
AcDbLine
 10
278.1928139176626
 20
188.6427369240658
 30
0.0
 11
248.3928139176684
 21
188.6427369240658
 31
0.0
  0
LINE
  5
FF
330
1F
100
AcDbEntity
  8
1
  6
Continuous
 62
     7
100
AcDbLine
 10
259.1073947799251
 20
193.6427369240658
 30
0.0
 11
258.7928139176686
 21
193.6427369240658
 31
0.0
  0
LINE
  5
100
330
1F
100
AcDbEntity
  8
1
  6
Continuous
 62
     7
100
AcDbLine
 10
279.1928139176685
 20
184.6427369240658
 30
0.0
 11
279.1928139176682
 21
143.5427369240659
 31
0.0
  0
LINE
  5
101
330
1F
100
AcDbEntity
  8
1
  6
DOT_CENTER
 62
     2
100
AcDbLine
 10
246.8373055649103
 20
142.6427369240658
 30
0.0
 11
260.4541185261014
 21
142.6427369240658
 31
0.0
  0
LINE
  5
102
330
1F
100
AcDbEntity
  8
1
  6
DOT_CENTER
 62
     2
100
AcDbLine
 10
254.2928139176684
 20
149.7093791949367
 30
0.0
 11
254.2928139176684
 21
135.9923588422769
 31
0.0
  0
LINE
  5
103
330
1F
100
AcDbEntity
  8
1
  6
DOT_CENTER
 62
     2
100
AcDbLine
 10
272.2928139176684
 20
149.7093791949367
 30
0.0
 11
272.2928139176684
 21
135.9923588422769
 31
0.0
  0
LINE
  5
104
330
1F
100
AcDbEntity
  8
1
  6
DOT_CENTER
 62
     2
100
AcDbLine
 10
265.8373055649103
 20
142.6427369240658
 30
0.0
 11
279.4541185261014
 21
142.6427369240658
 31
0.0
  0
LINE
  5
105
330
1F
100
AcDbEntity
  8
1
  6
DOT_CENTER
 62
     2
100
AcDbLine
 10
273.2928139176684
 20
168.8927369240658
 30
0.0
 11
273.2928139176684
 21
150.1080908585419
 31
0.0
  0
LINE
  5
106
330
1F
100
AcDbEntity
  8
1
  6
DOT_CENTER
 62
     2
100
AcDbLine
 10
253.2928139176684
 20
168.8927369240658
 30
0.0
 11
253.2928139176684
 21
150.1080908585419
 31
0.0
  0
LINE
  5
107
330
1F
100
AcDbEntity
  8
1
  6
DOT_CENTER
 62
     2
100
AcDbLine
 10
280.0428139176684
 20
156.6427369240658
 30
0.0
 11
275.8928139176683
 21
156.6427369240658
 31
0.0
  0
LINE
  5
108
330
1F
100
AcDbEntity
  8
1
  6
DASHED
 62
     2
100
AcDbLine
 10
277.5428139176684
 20
162.6427369240658
 30
0.0
 11
277.5428139176684
 21
156.6427369240658
 31
0.0
  0
LINE
  5
109
330
1F
100
AcDbEntity
  8
1
  6
DOT_CENTER
 62
     2
100
AcDbLine
 10
280.0428139176684
 20
162.6427369240658
 30
0.0
 11
275.8928139176683
 21
162.6427369240658
 31
0.0
  0
LINE
  5
10A
330
1F
100
AcDbEntity
  8
1
  6
DASHED
 62
     2
100
AcDbLine
 10
269.0428139176684
 20
156.6427369240658
 30
0.0
 11
269.0428139176684
 21
162.6427369240658
 31
0.0
  0
LINE
  5
10B
330
1F
100
AcDbEntity
  8
1
  6
DASHED
 62
     2
100
AcDbLine
 10
257.5428139176684
 20
156.6427369240658
 30
0.0
 11
257.5428139176684
 21
162.6427369240658
 31
0.0
  0
LINE
  5
10C
330
1F
100
AcDbEntity
  8
1
  6
DASHED
 62
     2
100
AcDbLine
 10
249.0428139176684
 20
162.6427369240658
 30
0.0
 11
249.0428139176684
 21
156.6427369240658
 31
0.0
  0
LINE
  5
10D
330
1F
100
AcDbEntity
  8
1
  6
Continuous
 62
     7
100
AcDbLine
 10
247.3928139176684
 20
143.5427369240659
 30
0.0
 11
247.3928139176684
 21
184.6427369240658
 31
0.0
  0
LINE
  5
10E
330
1F
100
AcDbEntity
  8
1
  6
Continuous
 62
     7
100
AcDbLine
 10
279.1928139176626
 20
184.6427369240658
 30
0.0
 11
278.1928139176626
 21
184.6427369240658
 31
0.0
  0
LINE
  5
10F
330
1F
100
AcDbEntity
  8
1
  6
DOT_CENTER
 62
     2
100
AcDbLine
 10
264.3810616248362
 20
195.1427369240658
 30
0.0
 11
264.3810616248362
 21
260.1427369240658
 31
0.0
  0
LINE
  5
110
330
1F
100
AcDbEntity
  8
1
  6
DOT_CENTER
 62
     2
100
AcDbLine
 10
254.2928139176684
 20
319.2931150058547
 30
0.0
 11
254.2928139176684
 21
305.5760946531949
 31
0.0
  0
LINE
  5
111
330
1F
100
AcDbEntity
  8
1
  6
Continuous
 62
     7
100
AcDbLine
 10
200.1648240726422
 20
184.6427369240658
 30
0.0
 11
199.1648240726422
 21
184.6427369240658
 31
0.0
  0
LINE
  5
112
330
1F
100
AcDbEntity
  8
1
  6
Continuous
 62
     7
100
AcDbLine
 10
199.1648240726422
 20
184.6427369240658
 30
0.0
 11
199.1648240726422
 21
143.5427369240621
 31
0.0
  0
LINE
  5
113
330
1F
100
AcDbEntity
  8
1
  6
Continuous
 62
     7
100
AcDbLine
 10
200.1648240726422
 20
184.6427369240658
 30
0.0
 11
199.7743114451898
 21
184.6427369240658
 31
0.0
  0
LINE
  5
114
330
1F
100
AcDbEntity
  8
1
  6
Continuous
 62
     7
100
AcDbLine
 10
199.1648240726422
 20
270.6427369240658
 30
0.0
 11
199.1648240726422
 21
262.6427369240658
 31
0.0
  0
LINE
  5
115
330
1F
100
AcDbEntity
  8
1
  6
Continuous
 62
     7
100
AcDbLine
 10
279.1928139176626
 20
184.6427369240658
 30
0.0
 11
279.1928139176626
 21
270.6427369240658
 31
0.0
  0
LINE
  5
116
330
1F
100
AcDbEntity
  8
1
  6
Continuous
 62
     7
100
AcDbLine
 10
278.1928139176626
 20
270.6427369240658
 30
0.0
 11
279.1928139176626
 21
270.6427369240658
 31
0.0
  0
LINE
  5
117
330
1F
100
AcDbEntity
  8
1
  6
Continuous
 62
     7
100
AcDbLine
 10
279.1928139176626
 20
270.6427369240658
 30
0.0
 11
279.1928139176626
 21
281.6427369240669
 31
0.0
  0
LINE
  5
118
330
1F
100
AcDbEntity
  8
0
  6
Continuous
 62
     7
100
AcDbLine
 10
219.2547893924733
 20
261.1427369240658
 30
0.0
 11
207.8198878628859
 21
261.1427369240658
 31
0.0
  0
LINE
  5
119
330
1F
100
AcDbEntity
  8
0
  6
Continuous
 62
     7
100
AcDbLine
 10
219.2547893924733
 20
261.1427369240658
 30
0.0
 11
219.2547893924734
 21
260.1427369240658
 31
0.0
  0
LINE
  5
11A
330
1F
100
AcDbEntity
  8
0
  6
Continuous
 62
     7
100
AcDbLine
 10
270.5382591521557
 20
261.1427369240658
 30
0.0
 11
259.1073947799252
 21
261.1427369240658
 31
0.0
  0
LINE
  5
11B
330
1F
100
AcDbEntity
  8
0
  6
Continuous
 62
     7
100
AcDbLine
 10
259.1073947799252
 20
261.1427369240658
 30
0.0
 11
259.1073947799252
 21
261.6427369240658
 31
0.0
  0
LINE
  5
11C
330
1F
100
AcDbEntity
  8
0
  6
Continuous
 62
     7
100
AcDbLine
 10
219.2547893924733
 20
194.1427369240656
 30
0.0
 11
219.2547893924732
 21
193.6427369240658
 31
0.0
  0
LINE
  5
11D
330
1F
100
AcDbEntity
  8
0
  6
Continuous
 62
     7
100
AcDbLine
 10
259.1073947799251
 20
194.1427369240656
 30
0.0
 11
259.1073947799251
 21
195.1427369240658
 31
0.0
  0
LINE
  5
11E
330
1F
100
AcDbEntity
  8
1
  6
DOT_CENTER
 62
     2
100
AcDbLine
 10
255.8928139176682
 20
298.6427369240658
 30
0.0
 11
260.0428139176684
 21
298.6427369240658
 31
0.0
  0
LINE
  5
11F
330
1F
100
AcDbEntity
  8
1
  6
DOT_CENTER
 62
     2
100
AcDbLine
 10
250.6928139176686
 20
298.6427369240658
 30
0.0
 11
255.8928139176682
 21
298.6427369240658
 31
0.0
  0
LINE
  5
120
330
1F
100
AcDbEntity
  8
1
  6
DOT_CENTER
 62
     2
100
AcDbLine
 10
250.6928139176685
 20
292.6427369240658
 30
0.0
 11
255.8928139176683
 21
292.6427369240658
 31
0.0
  0
LINE
  5
121
330
1F
100
AcDbEntity
  8
1
  6
DOT_CENTER
 62
     2
100
AcDbLine
 10
255.8928139176683
 20
292.6427369240658
 30
0.0
 11
260.0428139176684
 21
292.6427369240658
 31
0.0
  0
LINE
  5
122
330
1F
100
AcDbEntity
  8
1
  6
DOT_CENTER
 62
     2
100
AcDbLine
 10
275.8928139176682
 20
298.6427369240658
 30
0.0
 11
280.0428139176684
 21
298.6427369240658
 31
0.0
  0
LINE
  5
123
330
1F
100
AcDbEntity
  8
1
  6
DOT_CENTER
 62
     2
100
AcDbLine
 10
270.6928139176686
 20
298.6427369240658
 30
0.0
 11
275.8928139176682
 21
298.6427369240658
 31
0.0
  0
LINE
  5
124
330
1F
100
AcDbEntity
  8
1
  6
DOT_CENTER
 62
     2
100
AcDbLine
 10
270.6928139176685
 20
292.6427369240658
 30
0.0
 11
275.8928139176683
 21
292.6427369240658
 31
0.0
  0
LINE
  5
125
330
1F
100
AcDbEntity
  8
1
  6
DOT_CENTER
 62
     2
100
AcDbLine
 10
275.8928139176683
 20
292.6427369240658
 30
0.0
 11
280.0428139176684
 21
292.6427369240658
 31
0.0
  0
LINE
  5
126
330
1F
100
AcDbEntity
  8
1
  6
DASHED
 62
     2
100
AcDbLine
 10
250.6928139176686
 20
298.6427369240658
 30
0.0
 11
250.6928139176685
 21
292.6427369240658
 31
0.0
  0
LINE
  5
127
330
1F
100
AcDbEntity
  8
1
  6
DASHED
 62
     2
100
AcDbLine
 10
255.8928139176682
 20
298.6427369240658
 30
0.0
 11
255.8928139176683
 21
292.6427369240658
 31
0.0
  0
LINE
  5
128
330
1F
100
AcDbEntity
  8
1
  6
DASHED
 62
     2
100
AcDbLine
 10
270.6928139176686
 20
298.6427369240658
 30
0.0
 11
270.6928139176685
 21
292.6427369240658
 31
0.0
  0
LINE
  5
129
330
1F
100
AcDbEntity
  8
1
  6
DASHED
 62
     2
100
AcDbLine
 10
275.8928139176682
 20
298.6427369240658
 30
0.0
 11
275.8928139176683
 21
292.6427369240658
 31
0.0
  0
LINE
  5
12A
330
1F
100
AcDbEntity
  8
1
  6
DOT_CENTER
 62
     2
100
AcDbLine
 10
266.5428139176684
 20
298.6427369240658
 30
0.0
 11
270.6928139176686
 21
298.6427369240658
 31
0.0
  0
LINE
  5
12B
330
1F
100
AcDbEntity
  8
1
  6
DOT_CENTER
 62
     2
100
AcDbLine
 10
266.5428139176684
 20
292.6427369240658
 30
0.0
 11
270.6928139176685
 21
292.6427369240658
 31
0.0
  0
LINE
  5
12C
330
1F
100
AcDbEntity
  8
1
  6
DOT_CENTER
 62
     2
100
AcDbLine
 10
260.0428139176684
 20
162.6427369240658
 30
0.0
 11
255.8928139176683
 21
162.6427369240658
 31
0.0
  0
LINE
  5
12D
330
1F
100
AcDbEntity
  8
1
  6
DOT_CENTER
 62
     2
100
AcDbLine
 10
260.0428139176684
 20
156.6427369240658
 30
0.0
 11
255.8928139176682
 21
156.6427369240658
 31
0.0
  0
LINE
  5
12E
330
1F
100
AcDbEntity
  8
1
  6
DOT_CENTER
 62
     2
100
AcDbLine
 10
255.8928139176683
 20
162.6427369240658
 30
0.0
 11
250.6928139176685
 21
162.6427369240658
 31
0.0
  0
LINE
  5
12F
330
1F
100
AcDbEntity
  8
1
  6
DOT_CENTER
 62
     2
100
AcDbLine
 10
250.6928139176685
 20
162.6427369240658
 30
0.0
 11
246.5428139176685
 21
162.6427369240658
 31
0.0
  0
LINE
  5
130
330
1F
100
AcDbEntity
  8
1
  6
DOT_CENTER
 62
     2
100
AcDbLine
 10
250.6928139176686
 20
156.6427369240658
 30
0.0
 11
246.5428139176684
 21
156.6427369240658
 31
0.0
  0
LINE
  5
131
330
1F
100
AcDbEntity
  8
1
  6
DOT_CENTER
 62
     2
100
AcDbLine
 10
255.8928139176682
 20
156.6427369240658
 30
0.0
 11
250.6928139176686
 21
156.6427369240658
 31
0.0
  0
LINE
  5
132
330
1F
100
AcDbEntity
  8
1
  6
DOT_CENTER
 62
     2
100
AcDbLine
 10
270.6928139176685
 20
156.6427369240658
 30
0.0
 11
266.5428139176684
 21
156.6427369240658
 31
0.0
  0
LINE
  5
133
330
1F
100
AcDbEntity
  8
1
  6
DOT_CENTER
 62
     2
100
AcDbLine
 10
275.8928139176683
 20
156.6427369240658
 30
0.0
 11
270.6928139176685
 21
156.6427369240658
 31
0.0
  0
LINE
  5
134
330
1F
100
AcDbEntity
  8
1
  6
DOT_CENTER
 62
     2
100
AcDbLine
 10
275.8928139176683
 20
162.6427369240658
 30
0.0
 11
270.6928139176685
 21
162.6427369240658
 31
0.0
  0
LINE
  5
135
330
1F
100
AcDbEntity
  8
1
  6
DOT_CENTER
 62
     2
100
AcDbLine
 10
270.6928139176685
 20
162.6427369240658
 30
0.0
 11
266.5428139176684
 21
162.6427369240658
 31
0.0
  0
LINE
  5
136
330
1F
100
AcDbEntity
  8
1
  6
DASHED
 62
     2
100
AcDbLine
 10
250.6928139176685
 20
162.6427369240658
 30
0.0
 11
250.6928139176686
 21
156.6427369240658
 31
0.0
  0
LINE
  5
137
330
1F
100
AcDbEntity
  8
1
  6
DASHED
 62
     2
100
AcDbLine
 10
255.8928139176682
 20
156.6427369240658
 30
0.0
 11
255.8928139176683
 21
162.6427369240658
 31
0.0
  0
LINE
  5
138
330
1F
100
AcDbEntity
  8
1
  6
DASHED
 62
     2
100
AcDbLine
 10
270.6928139176685
 20
162.6427369240658
 30
0.0
 11
270.6928139176685
 21
156.6427369240658
 31
0.0
  0
LINE
  5
139
330
1F
100
AcDbEntity
  8
1
  6
DASHED
 62
     2
100
AcDbLine
 10
275.8928139176683
 20
156.6427369240658
 30
0.0
 11
275.8928139176683
 21
162.6427369240658
 31
0.0
  0
LINE
  5
13A
330
1F
100
AcDbEntity
  8
1
  6
Continuous
 62
     7
100
AcDbLine
 10
214.5648240726363
 20
148.89273692405
 30
0.0
 11
215.5648240726363
 21
148.89273692405
 31
0.0
  0
LINE
  5
13B
330
1F
100
AcDbEntity
  8
1
  6
Continuous
 62
     7
100
AcDbLine
 10
215.5648240726363
 20
148.89273692405
 30
0.0
 11
215.5648240726363
 21
147.64273692405
 31
0.0
  0
LINE
  5
13C
330
1F
100
AcDbEntity
  8
1
  6
Continuous
 62
     7
100
AcDbLine
 10
216.0648240726363
 20
147.14273692405
 30
0.0
 11
217.3148240726363
 21
147.14273692405
 31
0.0
  0
LINE
  5
13D
330
1F
100
AcDbEntity
  8
1
  6
Continuous
 62
     7
100
AcDbLine
 10
217.3148240726363
 20
147.14273692405
 30
0.0
 11
217.3148240726363
 21
146.14273692405
 31
0.0
  0
LINE
  5
13E
330
1F
100
AcDbEntity
  8
1
  6
Continuous
 62
     7
100
AcDbLine
 10
217.3148240726363
 20
146.14273692405
 30
0.0
 11
216.0648240726363
 21
146.14273692405
 31
0.0
  0
LINE
  5
13F
330
1F
100
AcDbEntity
  8
1
  6
Continuous
 62
     7
100
AcDbLine
 10
215.5648240726363
 20
145.64273692405
 30
0.0
 11
215.5648240726363
 21
144.39273692405
 31
0.0
  0
LINE
  5
140
330
1F
100
AcDbEntity
  8
1
  6
Continuous
 62
     7
100
AcDbLine
 10
215.5648240726363
 20
144.39273692405
 30
0.0
 11
214.5648240726363
 21
144.39273692405
 31
0.0
  0
LINE
  5
141
330
1F
100
AcDbEntity
  8
1
  6
Continuous
 62
     7
100
AcDbLine
 10
214.5648240726363
 20
144.39273692405
 30
0.0
 11
214.5648240726363
 21
145.64273692405
 31
0.0
  0
LINE
  5
142
330
1F
100
AcDbEntity
  8
1
  6
Continuous
 62
     7
100
AcDbLine
 10
214.0648240726363
 20
146.14273692405
 30
0.0
 11
212.8148240726363
 21
146.14273692405
 31
0.0
  0
LINE
  5
143
330
1F
100
AcDbEntity
  8
1
  6
Continuous
 62
     7
100
AcDbLine
 10
212.8148240726363
 20
146.14273692405
 30
0.0
 11
212.8148240726363
 21
147.14273692405
 31
0.0
  0
LINE
  5
144
330
1F
100
AcDbEntity
  8
1
  6
Continuous
 62
     7
100
AcDbLine
 10
212.8148240726363
 20
147.14273692405
 30
0.0
 11
214.0648240726363
 21
147.14273692405
 31
0.0
  0
LINE
  5
145
330
1F
100
AcDbEntity
  8
1
  6
Continuous
 62
     7
100
AcDbLine
 10
214.5648240726363
 20
147.64273692405
 30
0.0
 11
214.5648240726363
 21
148.89273692405
 31
0.0
  0
LINE
  5
146
330
1F
100
AcDbEntity
  8
1
  6
Continuous
 62
     7
100
AcDbLine
 10
214.5648240726363
 20
147.64273692405
 30
0.0
 11
214.3148240726363
 21
147.39273692405
 31
0.0
  0
LINE
  5
147
330
1F
100
AcDbEntity
  8
1
  6
Continuous
 62
     7
100
AcDbLine
 10
215.5648240726363
 20
147.64273692405
 30
0.0
 11
215.8148240726363
 21
147.39273692405
 31
0.0
  0
LINE
  5
148
330
1F
100
AcDbEntity
  8
1
  6
Continuous
 62
     7
100
AcDbLine
 10
216.0648240726363
 20
146.14273692405
 30
0.0
 11
215.8148240726363
 21
145.89273692405
 31
0.0
  0
LINE
  5
149
330
1F
100
AcDbEntity
  8
1
  6
Continuous
 62
     7
100
AcDbLine
 10
214.5648240726363
 20
145.64273692405
 30
0.0
 11
214.3148240726363
 21
145.89273692405
 31
0.0
  0
LINE
  5
14A
330
1F
100
AcDbEntity
  8
1
  6
Continuous
 62
     2
100
AcDbLine
 10
215.8148240726363
 20
147.39273692405
 30
0.0
 11
216.655814330306
 21
148.2337271817198
 31
0.0
  0
LINE
  5
14B
330
1F
100
AcDbEntity
  8
1
  6
Continuous
 62
     7
100
AcDbLine
 10
215.8148240726363
 20
147.39273692405
 30
0.0
 11
216.0648240726363
 21
147.14273692405
 31
0.0
  0
LINE
  5
14C
330
1F
100
AcDbEntity
  8
1
  6
Continuous
 62
     2
100
AcDbLine
 10
214.3148240726363
 20
147.39273692405
 30
0.0
 11
213.4738338149666
 21
148.2337271817198
 31
0.0
  0
LINE
  5
14D
330
1F
100
AcDbEntity
  8
1
  6
Continuous
 62
     7
100
AcDbLine
 10
214.3148240726363
 20
147.39273692405
 30
0.0
 11
214.0648240726363
 21
147.14273692405
 31
0.0
  0
LINE
  5
14E
330
1F
100
AcDbEntity
  8
1
  6
Continuous
 62
     2
100
AcDbLine
 10
214.3148240726363
 20
145.89273692405
 30
0.0
 11
213.4738338149666
 21
145.0517466663803
 31
0.0
  0
LINE
  5
14F
330
1F
100
AcDbEntity
  8
1
  6
Continuous
 62
     7
100
AcDbLine
 10
214.3148240726363
 20
145.89273692405
 30
0.0
 11
214.0648240726363
 21
146.14273692405
 31
0.0
  0
LINE
  5
150
330
1F
100
AcDbEntity
  8
1
  6
Continuous
 62
     2
100
AcDbLine
 10
215.8148240726363
 20
145.89273692405
 30
0.0
 11
216.655814330306
 21
145.0517466663803
 31
0.0
  0
LINE
  5
151
330
1F
100
AcDbEntity
  8
1
  6
Continuous
 62
     7
100
AcDbLine
 10
215.8148240726363
 20
145.89273692405
 30
0.0
 11
215.5648240726363
 21
145.64273692405
 31
0.0
  0
LINE
  5
152
330
1F
100
AcDbEntity
  8
1
  6
DOT_CENTER
 62
     2
100
AcDbLine
 10
215.0648240726363
 20
140.497365691284
 30
0.0
 11
215.0648240726363
 21
153.0012333477552
 31
0.0
  0
LINE
  5
153
330
1F
100
AcDbEntity
  8
1
  6
DOT_CENTER
 62
     2
100
AcDbLine
 10
209.367645476747
 20
146.6427369240502
 30
0.0
 11
221.4910208198512
 21
146.64273692405
 31
0.0
  0
LINE
  5
154
330
1F
100
AcDbEntity
  8
1
  6
Continuous
 62
     7
100
AcDbLine
 10
262.7928139176685
 20
148.89273692405
 30
0.0
 11
263.7928139176685
 21
148.89273692405
 31
0.0
  0
LINE
  5
155
330
1F
100
AcDbEntity
  8
1
  6
Continuous
 62
     7
100
AcDbLine
 10
263.7928139176685
 20
148.89273692405
 30
0.0
 11
263.7928139176685
 21
147.64273692405
 31
0.0
  0
LINE
  5
156
330
1F
100
AcDbEntity
  8
1
  6
Continuous
 62
     7
100
AcDbLine
 10
264.2928139176685
 20
147.14273692405
 30
0.0
 11
265.5428139176685
 21
147.14273692405
 31
0.0
  0
LINE
  5
157
330
1F
100
AcDbEntity
  8
1
  6
Continuous
 62
     7
100
AcDbLine
 10
265.5428139176685
 20
147.14273692405
 30
0.0
 11
265.5428139176685
 21
146.14273692405
 31
0.0
  0
LINE
  5
158
330
1F
100
AcDbEntity
  8
1
  6
Continuous
 62
     7
100
AcDbLine
 10
265.5428139176685
 20
146.14273692405
 30
0.0
 11
264.2928139176685
 21
146.14273692405
 31
0.0
  0
LINE
  5
159
330
1F
100
AcDbEntity
  8
1
  6
Continuous
 62
     7
100
AcDbLine
 10
263.7928139176685
 20
145.64273692405
 30
0.0
 11
263.7928139176685
 21
144.39273692405
 31
0.0
  0
LINE
  5
15A
330
1F
100
AcDbEntity
  8
1
  6
Continuous
 62
     7
100
AcDbLine
 10
263.7928139176685
 20
144.39273692405
 30
0.0
 11
262.7928139176685
 21
144.39273692405
 31
0.0
  0
LINE
  5
15B
330
1F
100
AcDbEntity
  8
1
  6
Continuous
 62
     7
100
AcDbLine
 10
262.7928139176685
 20
144.39273692405
 30
0.0
 11
262.7928139176685
 21
145.64273692405
 31
0.0
  0
LINE
  5
15C
330
1F
100
AcDbEntity
  8
1
  6
Continuous
 62
     7
100
AcDbLine
 10
262.2928139176685
 20
146.14273692405
 30
0.0
 11
261.0428139176685
 21
146.14273692405
 31
0.0
  0
LINE
  5
15D
330
1F
100
AcDbEntity
  8
1
  6
Continuous
 62
     7
100
AcDbLine
 10
261.0428139176685
 20
146.14273692405
 30
0.0
 11
261.0428139176685
 21
147.14273692405
 31
0.0
  0
LINE
  5
15E
330
1F
100
AcDbEntity
  8
1
  6
Continuous
 62
     7
100
AcDbLine
 10
261.0428139176685
 20
147.14273692405
 30
0.0
 11
262.2928139176685
 21
147.14273692405
 31
0.0
  0
LINE
  5
15F
330
1F
100
AcDbEntity
  8
1
  6
Continuous
 62
     7
100
AcDbLine
 10
262.7928139176685
 20
147.64273692405
 30
0.0
 11
262.7928139176685
 21
148.89273692405
 31
0.0
  0
LINE
  5
160
330
1F
100
AcDbEntity
  8
1
  6
Continuous
 62
     7
100
AcDbLine
 10
262.7928139176685
 20
147.64273692405
 30
0.0
 11
262.5428139176685
 21
147.39273692405
 31
0.0
  0
LINE
  5
161
330
1F
100
AcDbEntity
  8
1
  6
Continuous
 62
     7
100
AcDbLine
 10
263.7928139176685
 20
147.64273692405
 30
0.0
 11
264.0428139176685
 21
147.39273692405
 31
0.0
  0
LINE
  5
162
330
1F
100
AcDbEntity
  8
1
  6
Continuous
 62
     7
100
AcDbLine
 10
264.2928139176685
 20
146.14273692405
 30
0.0
 11
264.0428139176685
 21
145.89273692405
 31
0.0
  0
LINE
  5
163
330
1F
100
AcDbEntity
  8
1
  6
Continuous
 62
     7
100
AcDbLine
 10
262.7928139176685
 20
145.64273692405
 30
0.0
 11
262.5428139176685
 21
145.89273692405
 31
0.0
  0
LINE
  5
164
330
1F
100
AcDbEntity
  8
1
  6
Continuous
 62
     2
100
AcDbLine
 10
264.0428139176685
 20
147.39273692405
 30
0.0
 11
264.8838041753382
 21
148.2337271817198
 31
0.0
  0
LINE
  5
165
330
1F
100
AcDbEntity
  8
1
  6
Continuous
 62
     7
100
AcDbLine
 10
264.0428139176685
 20
147.39273692405
 30
0.0
 11
264.2928139176685
 21
147.14273692405
 31
0.0
  0
LINE
  5
166
330
1F
100
AcDbEntity
  8
1
  6
Continuous
 62
     2
100
AcDbLine
 10
262.5428139176685
 20
147.39273692405
 30
0.0
 11
261.7018236599988
 21
148.2337271817198
 31
0.0
  0
LINE
  5
167
330
1F
100
AcDbEntity
  8
1
  6
Continuous
 62
     7
100
AcDbLine
 10
262.5428139176685
 20
147.39273692405
 30
0.0
 11
262.2928139176685
 21
147.14273692405
 31
0.0
  0
LINE
  5
168
330
1F
100
AcDbEntity
  8
1
  6
Continuous
 62
     2
100
AcDbLine
 10
262.5428139176685
 20
145.89273692405
 30
0.0
 11
261.7018236599988
 21
145.0517466663803
 31
0.0
  0
LINE
  5
169
330
1F
100
AcDbEntity
  8
1
  6
Continuous
 62
     7
100
AcDbLine
 10
262.5428139176685
 20
145.89273692405
 30
0.0
 11
262.2928139176685
 21
146.14273692405
 31
0.0
  0
LINE
  5
16A
330
1F
100
AcDbEntity
  8
1
  6
Continuous
 62
     2
100
AcDbLine
 10
264.0428139176685
 20
145.89273692405
 30
0.0
 11
264.8838041753382
 21
145.0517466663803
 31
0.0
  0
LINE
  5
16B
330
1F
100
AcDbEntity
  8
1
  6
Continuous
 62
     7
100
AcDbLine
 10
264.0428139176685
 20
145.89273692405
 30
0.0
 11
263.7928139176685
 21
145.64273692405
 31
0.0
  0
LINE
  5
16C
330
1F
100
AcDbEntity
  8
1
  6
DOT_CENTER
 62
     2
100
AcDbLine
 10
263.2928139176685
 20
140.497365691284
 30
0.0
 11
263.2928139176685
 21
153.0012333477552
 31
0.0
  0
LINE
  5
16D
330
1F
100
AcDbEntity
  8
1
  6
DOT_CENTER
 62
     2
100
AcDbLine
 10
257.5956353217792
 20
146.6427369240502
 30
0.0
 11
269.7190106648834
 21
146.64273692405
 31
0.0
  0
LINE
  5
16E
330
1F
100
AcDbEntity
  8
1
  6
Continuous
 62
     7
100
AcDbLine
 10
262.7928139176685
 20
310.8927369240814
 30
0.0
 11
263.7928139176685
 21
310.8927369240814
 31
0.0
  0
LINE
  5
16F
330
1F
100
AcDbEntity
  8
1
  6
Continuous
 62
     7
100
AcDbLine
 10
263.7928139176685
 20
310.8927369240814
 30
0.0
 11
263.7928139176685
 21
309.6427369240814
 31
0.0
  0
LINE
  5
170
330
1F
100
AcDbEntity
  8
1
  6
Continuous
 62
     7
100
AcDbLine
 10
264.2928139176685
 20
309.1427369240814
 30
0.0
 11
265.5428139176685
 21
309.1427369240814
 31
0.0
  0
LINE
  5
171
330
1F
100
AcDbEntity
  8
1
  6
Continuous
 62
     7
100
AcDbLine
 10
265.5428139176685
 20
309.1427369240814
 30
0.0
 11
265.5428139176685
 21
308.1427369240814
 31
0.0
  0
LINE
  5
172
330
1F
100
AcDbEntity
  8
1
  6
Continuous
 62
     7
100
AcDbLine
 10
265.5428139176685
 20
308.1427369240814
 30
0.0
 11
264.2928139176685
 21
308.1427369240814
 31
0.0
  0
LINE
  5
173
330
1F
100
AcDbEntity
  8
1
  6
Continuous
 62
     7
100
AcDbLine
 10
263.7928139176685
 20
307.6427369240814
 30
0.0
 11
263.7928139176685
 21
306.3927369240814
 31
0.0
  0
LINE
  5
174
330
1F
100
AcDbEntity
  8
1
  6
Continuous
 62
     7
100
AcDbLine
 10
263.7928139176685
 20
306.3927369240814
 30
0.0
 11
262.7928139176685
 21
306.3927369240814
 31
0.0
  0
LINE
  5
175
330
1F
100
AcDbEntity
  8
1
  6
Continuous
 62
     7
100
AcDbLine
 10
262.7928139176685
 20
306.3927369240814
 30
0.0
 11
262.7928139176685
 21
307.6427369240814
 31
0.0
  0
LINE
  5
176
330
1F
100
AcDbEntity
  8
1
  6
Continuous
 62
     7
100
AcDbLine
 10
262.2928139176685
 20
308.1427369240814
 30
0.0
 11
261.0428139176685
 21
308.1427369240814
 31
0.0
  0
LINE
  5
177
330
1F
100
AcDbEntity
  8
1
  6
Continuous
 62
     7
100
AcDbLine
 10
261.0428139176685
 20
308.1427369240814
 30
0.0
 11
261.0428139176685
 21
309.1427369240814
 31
0.0
  0
LINE
  5
178
330
1F
100
AcDbEntity
  8
1
  6
Continuous
 62
     7
100
AcDbLine
 10
261.0428139176685
 20
309.1427369240814
 30
0.0
 11
262.2928139176685
 21
309.1427369240814
 31
0.0
  0
LINE
  5
179
330
1F
100
AcDbEntity
  8
1
  6
Continuous
 62
     7
100
AcDbLine
 10
262.7928139176685
 20
309.6427369240814
 30
0.0
 11
262.7928139176685
 21
310.8927369240814
 31
0.0
  0
LINE
  5
17A
330
1F
100
AcDbEntity
  8
1
  6
Continuous
 62
     7
100
AcDbLine
 10
262.7928139176685
 20
309.6427369240814
 30
0.0
 11
262.5428139176685
 21
309.3927369240814
 31
0.0
  0
LINE
  5
17B
330
1F
100
AcDbEntity
  8
1
  6
Continuous
 62
     7
100
AcDbLine
 10
263.7928139176685
 20
309.6427369240814
 30
0.0
 11
264.0428139176685
 21
309.3927369240814
 31
0.0
  0
LINE
  5
17C
330
1F
100
AcDbEntity
  8
1
  6
Continuous
 62
     7
100
AcDbLine
 10
264.2928139176685
 20
308.1427369240814
 30
0.0
 11
264.0428139176685
 21
307.8927369240814
 31
0.0
  0
LINE
  5
17D
330
1F
100
AcDbEntity
  8
1
  6
Continuous
 62
     7
100
AcDbLine
 10
262.7928139176685
 20
307.6427369240814
 30
0.0
 11
262.5428139176685
 21
307.8927369240814
 31
0.0
  0
LINE
  5
17E
330
1F
100
AcDbEntity
  8
1
  6
Continuous
 62
     2
100
AcDbLine
 10
264.0428139176685
 20
309.3927369240814
 30
0.0
 11
264.8838041753382
 21
310.2337271817511
 31
0.0
  0
LINE
  5
17F
330
1F
100
AcDbEntity
  8
1
  6
Continuous
 62
     7
100
AcDbLine
 10
264.0428139176685
 20
309.3927369240814
 30
0.0
 11
264.2928139176685
 21
309.1427369240814
 31
0.0
  0
LINE
  5
180
330
1F
100
AcDbEntity
  8
1
  6
Continuous
 62
     2
100
AcDbLine
 10
262.5428139176685
 20
309.3927369240814
 30
0.0
 11
261.7018236599988
 21
310.2337271817511
 31
0.0
  0
LINE
  5
181
330
1F
100
AcDbEntity
  8
1
  6
Continuous
 62
     7
100
AcDbLine
 10
262.5428139176685
 20
309.3927369240814
 30
0.0
 11
262.2928139176685
 21
309.1427369240814
 31
0.0
  0
LINE
  5
182
330
1F
100
AcDbEntity
  8
1
  6
Continuous
 62
     2
100
AcDbLine
 10
262.5428139176685
 20
307.8927369240814
 30
0.0
 11
261.7018236599988
 21
307.0517466664117
 31
0.0
  0
LINE
  5
183
330
1F
100
AcDbEntity
  8
1
  6
Continuous
 62
     7
100
AcDbLine
 10
262.5428139176685
 20
307.8927369240814
 30
0.0
 11
262.2928139176685
 21
308.1427369240814
 31
0.0
  0
LINE
  5
184
330
1F
100
AcDbEntity
  8
1
  6
Continuous
 62
     2
100
AcDbLine
 10
264.0428139176685
 20
307.8927369240814
 30
0.0
 11
264.8838041753382
 21
307.0517466664117
 31
0.0
  0
LINE
  5
185
330
1F
100
AcDbEntity
  8
1
  6
Continuous
 62
     7
100
AcDbLine
 10
264.0428139176685
 20
307.8927369240814
 30
0.0
 11
263.7928139176685
 21
307.6427369240814
 31
0.0
  0
LINE
  5
186
330
1F
100
AcDbEntity
  8
1
  6
DOT_CENTER
 62
     2
100
AcDbLine
 10
263.2928139176685
 20
302.4973656913154
 30
0.0
 11
263.2928139176685
 21
315.0012333477865
 31
0.0
  0
LINE
  5
187
330
1F
100
AcDbEntity
  8
1
  6
DOT_CENTER
 62
     2
100
AcDbLine
 10
257.5956353217792
 20
308.6427369240815
 30
0.0
 11
269.7190106648834
 21
308.6427369240814
 31
0.0
  0
LINE
  5
188
330
1F
100
AcDbEntity
  8
1
  6
Continuous
 62
     7
100
AcDbLine
 10
214.5648240726363
 20
310.8927369240814
 30
0.0
 11
215.5648240726363
 21
310.8927369240814
 31
0.0
  0
LINE
  5
189
330
1F
100
AcDbEntity
  8
1
  6
Continuous
 62
     7
100
AcDbLine
 10
215.5648240726363
 20
310.8927369240814
 30
0.0
 11
215.5648240726363
 21
309.6427369240814
 31
0.0
  0
LINE
  5
18A
330
1F
100
AcDbEntity
  8
1
  6
Continuous
 62
     7
100
AcDbLine
 10
216.0648240726363
 20
309.1427369240814
 30
0.0
 11
217.3148240726363
 21
309.1427369240814
 31
0.0
  0
LINE
  5
18B
330
1F
100
AcDbEntity
  8
1
  6
Continuous
 62
     7
100
AcDbLine
 10
217.3148240726363
 20
309.1427369240814
 30
0.0
 11
217.3148240726363
 21
308.1427369240814
 31
0.0
  0
LINE
  5
18C
330
1F
100
AcDbEntity
  8
1
  6
Continuous
 62
     7
100
AcDbLine
 10
217.3148240726363
 20
308.1427369240814
 30
0.0
 11
216.0648240726363
 21
308.1427369240814
 31
0.0
  0
LINE
  5
18D
330
1F
100
AcDbEntity
  8
1
  6
Continuous
 62
     7
100
AcDbLine
 10
215.5648240726363
 20
307.6427369240814
 30
0.0
 11
215.5648240726363
 21
306.3927369240814
 31
0.0
  0
LINE
  5
18E
330
1F
100
AcDbEntity
  8
1
  6
Continuous
 62
     7
100
AcDbLine
 10
215.5648240726363
 20
306.3927369240814
 30
0.0
 11
214.5648240726363
 21
306.3927369240814
 31
0.0
  0
LINE
  5
18F
330
1F
100
AcDbEntity
  8
1
  6
Continuous
 62
     7
100
AcDbLine
 10
214.5648240726363
 20
306.3927369240814
 30
0.0
 11
214.5648240726363
 21
307.6427369240814
 31
0.0
  0
LINE
  5
190
330
1F
100
AcDbEntity
  8
1
  6
Continuous
 62
     7
100
AcDbLine
 10
214.0648240726363
 20
308.1427369240814
 30
0.0
 11
212.8148240726363
 21
308.1427369240814
 31
0.0
  0
LINE
  5
191
330
1F
100
AcDbEntity
  8
1
  6
Continuous
 62
     7
100
AcDbLine
 10
212.8148240726363
 20
308.1427369240814
 30
0.0
 11
212.8148240726363
 21
309.1427369240814
 31
0.0
  0
LINE
  5
192
330
1F
100
AcDbEntity
  8
1
  6
Continuous
 62
     7
100
AcDbLine
 10
212.8148240726363
 20
309.1427369240814
 30
0.0
 11
214.0648240726363
 21
309.1427369240814
 31
0.0
  0
LINE
  5
193
330
1F
100
AcDbEntity
  8
1
  6
Continuous
 62
     7
100
AcDbLine
 10
214.5648240726363
 20
309.6427369240814
 30
0.0
 11
214.5648240726363
 21
310.8927369240814
 31
0.0
  0
LINE
  5
194
330
1F
100
AcDbEntity
  8
1
  6
Continuous
 62
     7
100
AcDbLine
 10
214.5648240726363
 20
309.6427369240814
 30
0.0
 11
214.3148240726363
 21
309.3927369240814
 31
0.0
  0
LINE
  5
195
330
1F
100
AcDbEntity
  8
1
  6
Continuous
 62
     7
100
AcDbLine
 10
215.5648240726363
 20
309.6427369240814
 30
0.0
 11
215.8148240726363
 21
309.3927369240814
 31
0.0
  0
LINE
  5
196
330
1F
100
AcDbEntity
  8
1
  6
Continuous
 62
     7
100
AcDbLine
 10
216.0648240726363
 20
308.1427369240814
 30
0.0
 11
215.8148240726363
 21
307.8927369240814
 31
0.0
  0
LINE
  5
197
330
1F
100
AcDbEntity
  8
1
  6
Continuous
 62
     7
100
AcDbLine
 10
214.5648240726363
 20
307.6427369240814
 30
0.0
 11
214.3148240726363
 21
307.8927369240814
 31
0.0
  0
LINE
  5
198
330
1F
100
AcDbEntity
  8
1
  6
Continuous
 62
     2
100
AcDbLine
 10
215.8148240726363
 20
309.3927369240814
 30
0.0
 11
216.655814330306
 21
310.2337271817511
 31
0.0
  0
LINE
  5
199
330
1F
100
AcDbEntity
  8
1
  6
Continuous
 62
     7
100
AcDbLine
 10
215.8148240726363
 20
309.3927369240814
 30
0.0
 11
216.0648240726363
 21
309.1427369240814
 31
0.0
  0
LINE
  5
19A
330
1F
100
AcDbEntity
  8
1
  6
Continuous
 62
     2
100
AcDbLine
 10
214.3148240726363
 20
309.3927369240814
 30
0.0
 11
213.4738338149666
 21
310.2337271817511
 31
0.0
  0
LINE
  5
19B
330
1F
100
AcDbEntity
  8
1
  6
Continuous
 62
     7
100
AcDbLine
 10
214.3148240726363
 20
309.3927369240814
 30
0.0
 11
214.0648240726363
 21
309.1427369240814
 31
0.0
  0
LINE
  5
19C
330
1F
100
AcDbEntity
  8
1
  6
Continuous
 62
     2
100
AcDbLine
 10
214.3148240726363
 20
307.8927369240814
 30
0.0
 11
213.4738338149666
 21
307.0517466664117
 31
0.0
  0
LINE
  5
19D
330
1F
100
AcDbEntity
  8
1
  6
Continuous
 62
     7
100
AcDbLine
 10
214.3148240726363
 20
307.8927369240814
 30
0.0
 11
214.0648240726363
 21
308.1427369240814
 31
0.0
  0
LINE
  5
19E
330
1F
100
AcDbEntity
  8
1
  6
Continuous
 62
     2
100
AcDbLine
 10
215.8148240726363
 20
307.8927369240814
 30
0.0
 11
216.655814330306
 21
307.0517466664117
 31
0.0
  0
LINE
  5
19F
330
1F
100
AcDbEntity
  8
1
  6
Continuous
 62
     7
100
AcDbLine
 10
215.8148240726363
 20
307.8927369240814
 30
0.0
 11
215.5648240726363
 21
307.6427369240814
 31
0.0
  0
LINE
  5
1A0
330
1F
100
AcDbEntity
  8
1
  6
DOT_CENTER
 62
     2
100
AcDbLine
 10
215.0648240726363
 20
302.4973656913154
 30
0.0
 11
215.0648240726363
 21
315.0012333477865
 31
0.0
  0
LINE
  5
1A1
330
1F
100
AcDbEntity
  8
1
  6
DOT_CENTER
 62
     2
100
AcDbLine
 10
209.367645476747
 20
308.6427369240815
 30
0.0
 11
221.4910208198512
 21
308.6427369240814
 31
0.0
  0
ARC
  5
1A2
330
1F
100
AcDbEntity
  8
1
  6
Continuous
 62
     7
100
AcDbCircle
 10
215.0648240726218
 20
143.5427369240589
 30
0.0
 40
15.8999999999796
100
AcDbArc
 50
179.9999999999884
 51
0.000000000017
  0
ARC
  5
1A3
330
1F
100
AcDbEntity
  8
1
  6
Continuous
 62
     7
100
AcDbCircle
 10
215.0648240726218
 20
311.7427369240727
 30
0.0
 40
15.9000000000087
100
AcDbArc
 50
-0.0000000000168
 51
-179.9999999999885
  0
ARC
  5
1A4
330
1F
100
AcDbEntity
  8
1
  6
DASHED
 62
     2
100
AcDbCircle
 10
253.2928139176684
 20
292.6427369240658
 30
0.0
 40
2.599999999999909
100
AcDbArc
 50
180.0
 51
0.0
  0
ARC
  5
1A5
330
1F
100
AcDbEntity
  8
1
  6
DASHED
 62
     2
100
AcDbCircle
 10
253.2928139176684
 20
298.6427369240658
 30
0.0
 40
2.599999999999795
100
AcDbArc
 50
0.0
 51
180.0
  0
ARC
  5
1A6
330
1F
100
AcDbEntity
  8
1
  6
DASHED
 62
     2
100
AcDbCircle
 10
273.2928139176684
 20
292.6427369240658
 30
0.0
 40
2.599999999999909
100
AcDbArc
 50
180.0
 51
0.0
  0
ARC
  5
1A7
330
1F
100
AcDbEntity
  8
1
  6
DASHED
 62
     2
100
AcDbCircle
 10
273.2928139176684
 20
298.6427369240658
 30
0.0
 40
2.599999999999795
100
AcDbArc
 50
0.0
 51
180.0
  0
ARC
  5
1A8
330
1F
100
AcDbEntity
  8
1
  6
Continuous
 62
     7
100
AcDbCircle
 10
263.2928139176685
 20
311.7427369240656
 30
0.0
 40
15.89999999999969
100
AcDbArc
 50
0.0
 51
180.0
  0
ARC
  5
1A9
330
1F
100
AcDbEntity
  8
1
  6
DASHED
 62
     2
100
AcDbCircle
 10
273.2928139176684
 20
298.6427369240658
 30
0.0
 40
4.25
100
AcDbArc
 50
0.0
 51
180.0
  0
ARC
  5
1AA
330
1F
100
AcDbEntity
  8
1
  6
DASHED
 62
     2
100
AcDbCircle
 10
253.2928139176684
 20
298.6427369240658
 30
0.0
 40
4.25
100
AcDbArc
 50
0.0
 51
180.0
  0
ARC
  5
1AB
330
1F
100
AcDbEntity
  8
1
  6
DASHED
 62
     2
100
AcDbCircle
 10
253.2928139176684
 20
292.6427369240658
 30
0.0
 40
4.25
100
AcDbArc
 50
180.0
 51
0.0
  0
ARC
  5
1AC
330
1F
100
AcDbEntity
  8
1
  6
DASHED
 62
     2
100
AcDbCircle
 10
273.2928139176684
 20
292.6427369240658
 30
0.0
 40
4.25
100
AcDbArc
 50
180.0
 51
0.0
  0
ARC
  5
1AD
330
1F
100
AcDbEntity
  8
1
  6
Continuous
 62
     7
100
AcDbCircle
 10
224.6805213053041
 20
243.1427369240658
 30
0.0
 40
2.5
100
AcDbArc
 50
90.00000000000196
 51
180.0
  0
ARC
  5
1AE
330
1F
100
AcDbEntity
  8
1
  6
Continuous
 62
     7
100
AcDbCircle
 10
224.6805213053041
 20
212.1427369240659
 30
0.0
 40
2.5
100
AcDbArc
 50
-179.9999999999974
 51
-90.0
  0
ARC
  5
1AF
330
1F
100
AcDbEntity
  8
1
  6
Continuous
 62
     7
100
AcDbCircle
 10
253.6859083478656
 20
246.5427369240658
 30
0.0
 40
2.5
100
AcDbArc
 50
-90.0
 51
0.0
  0
ARC
  5
1B0
330
1F
100
AcDbEntity
  8
1
  6
Continuous
 62
     7
100
AcDbCircle
 10
253.6859083478656
 20
208.7427369240658
 30
0.0
 40
2.500000000000028
100
AcDbArc
 50
0.00000000000195
 51
90.0
  0
ARC
  5
1B1
330
1F
100
AcDbEntity
  8
1
  6
DASHED
 62
     2
100
AcDbCircle
 10
273.2928139176684
 20
162.6427369240658
 30
0.0
 40
4.25
100
AcDbArc
 50
0.0
 51
180.0
  0
ARC
  5
1B2
330
1F
100
AcDbEntity
  8
1
  6
DASHED
 62
     2
100
AcDbCircle
 10
253.2928139176684
 20
162.6427369240658
 30
0.0
 40
4.25
100
AcDbArc
 50
0.0
 51
180.0
  0
ARC
  5
1B3
330
1F
100
AcDbEntity
  8
1
  6
DASHED
 62
     2
100
AcDbCircle
 10
253.2928139176684
 20
156.6427369240658
 30
0.0
 40
4.25
100
AcDbArc
 50
180.0
 51
0.0
  0
ARC
  5
1B4
330
1F
100
AcDbEntity
  8
1
  6
DASHED
 62
     2
100
AcDbCircle
 10
273.2928139176684
 20
156.6427369240658
 30
0.0
 40
4.25
100
AcDbArc
 50
180.0
 51
0.0
  0
ARC
  5
1B5
330
1F
100
AcDbEntity
  8
1
  6
Continuous
 62
     7
100
AcDbCircle
 10
263.2928139176685
 20
143.5427369240659
 30
0.0
 40
15.90000000000012
100
AcDbArc
 50
180.0
 51
0.0
  0
ARC
  5
1B6
330
1F
100
AcDbEntity
  8
1
  6
DASHED
 62
     2
100
AcDbCircle
 10
273.2928139176684
 20
156.6427369240658
 30
0.0
 40
2.599999999999909
100
AcDbArc
 50
180.0
 51
0.0
  0
ARC
  5
1B7
330
1F
100
AcDbEntity
  8
1
  6
DASHED
 62
     2
100
AcDbCircle
 10
273.2928139176684
 20
162.6427369240658
 30
0.0
 40
2.599999999999909
100
AcDbArc
 50
0.0
 51
180.0
  0
ARC
  5
1B8
330
1F
100
AcDbEntity
  8
1
  6
DASHED
 62
     2
100
AcDbCircle
 10
253.2928139176684
 20
156.6427369240658
 30
0.0
 40
2.599999999999824
100
AcDbArc
 50
180.0
 51
0.0
  0
ARC
  5
1B9
330
1F
100
AcDbEntity
  8
1
  6
DASHED
 62
     2
100
AcDbCircle
 10
253.2928139176684
 20
162.6427369240658
 30
0.0
 40
2.599999999999881
100
AcDbArc
 50
0.0
 51
180.0
  0
CIRCLE
  5
1BA
330
1F
100
AcDbEntity
  8
1
  6
DASHED
 62
     2
100
AcDbCircle
 10
205.5648240726363
 20
142.6427369240658
 30
0.0
 40
2.75
  0
CIRCLE
  5
1BB
330
1F
100
AcDbEntity
  8
1
  6
DASHED
 62
     2
100
AcDbCircle
 10
205.5648240726363
 20
142.6427369240658
 30
0.0
 40
5.100000000005792
  0
CIRCLE
  5
1BC
330
1F
100
AcDbEntity
  8
1
  6
DASHED
 62
     2
100
AcDbCircle
 10
224.5648240726363
 20
142.6427369240658
 30
0.0
 40
5.100000000005792
  0
CIRCLE
  5
1BD
330
1F
100
AcDbEntity
  8
1
  6
DASHED
 62
     2
100
AcDbCircle
 10
224.5648240726363
 20
142.6427369240658
 30
0.0
 40
2.75
  0
CIRCLE
  5
1BE
330
1F
100
AcDbEntity
  8
1
  6
DASHED
 62
     2
100
AcDbCircle
 10
224.5648240726363
 20
312.6427369240658
 30
0.0
 40
2.75
  0
CIRCLE
  5
1BF
330
1F
100
AcDbEntity
  8
1
  6
DASHED
 62
     2
100
AcDbCircle
 10
224.5648240726363
 20
312.6427369240658
 30
0.0
 40
5.100000000005792
  0
CIRCLE
  5
1C0
330
1F
100
AcDbEntity
  8
1
  6
DASHED
 62
     2
100
AcDbCircle
 10
205.5648240726363
 20
312.6427369240658
 30
0.0
 40
5.100000000005792
  0
CIRCLE
  5
1C1
330
1F
100
AcDbEntity
  8
1
  6
DASHED
 62
     2
100
AcDbCircle
 10
205.5648240726363
 20
312.6427369240658
 30
0.0
 40
2.75
  0
CIRCLE
  5
1C2
330
1F
100
AcDbEntity
  8
1
  6
DASHED
 62
     2
100
AcDbCircle
 10
272.2928139176684
 20
312.6427369240658
 30
0.0
 40
2.75
  0
CIRCLE
  5
1C3
330
1F
100
AcDbEntity
  8
1
  6
DASHED
 62
     2
100
AcDbCircle
 10
272.2928139176684
 20
312.6427369240658
 30
0.0
 40
5.10000000000008
  0
CIRCLE
  5
1C4
330
1F
100
AcDbEntity
  8
1
  6
DASHED
 62
     2
100
AcDbCircle
 10
254.2928139176684
 20
312.6427369240658
 30
0.0
 40
2.75
  0
CIRCLE
  5
1C5
330
1F
100
AcDbEntity
  8
1
  6
DASHED
 62
     2
100
AcDbCircle
 10
254.2928139176684
 20
312.6427369240658
 30
0.0
 40
5.10000000000008
  0
CIRCLE
  5
1C6
330
1F
100
AcDbEntity
  8
1
  6
DASHED
 62
     2
100
AcDbCircle
 10
254.2928139176684
 20
142.6427369240658
 30
0.0
 40
5.100000000000108
  0
CIRCLE
  5
1C7
330
1F
100
AcDbEntity
  8
1
  6
DASHED
 62
     2
100
AcDbCircle
 10
254.2928139176684
 20
142.6427369240658
 30
0.0
 40
2.75
  0
CIRCLE
  5
1C8
330
1F
100
AcDbEntity
  8
1
  6
DASHED
 62
     2
100
AcDbCircle
 10
272.2928139176684
 20
142.6427369240658
 30
0.0
 40
5.100000000000108
  0
CIRCLE
  5
1C9
330
1F
100
AcDbEntity
  8
1
  6
DASHED
 62
     2
100
AcDbCircle
 10
272.2928139176684
 20
142.6427369240658
 30
0.0
 40
2.75
  0
CIRCLE
  5
1CA
330
1F
100
AcDbEntity
  8
1
  6
Continuous
 62
     7
100
AcDbCircle
 10
215.0648240726363
 20
146.6427369240501
 30
0.0
 40
3.999999999999915
  0
CIRCLE
  5
1CB
330
1F
100
AcDbEntity
  8
1
  6
Continuous
 62
     7
100
AcDbCircle
 10
263.2928139176685
 20
146.64273692405
 30
0.0
 40
4.0
  0
CIRCLE
  5
1CC
330
1F
100
AcDbEntity
  8
1
  6
Continuous
 62
     7
100
AcDbCircle
 10
263.2928139176685
 20
308.6427369240814
 30
0.0
 40
4.0
  0
CIRCLE
  5
1CD
330
1F
100
AcDbEntity
  8
1
  6
Continuous
 62
     7
100
AcDbCircle
 10
215.0648240726363
 20
308.6427369240814
 30
0.0
 40
4.0
  0
ARC
  5
1CE
330
1F
100
AcDbEntity
  8
1
  6
Continuous
 62
     7
100
AcDbCircle
 10
204.9648240726305
 20
258.1427369240658
 30
0.0
 40
2.0
100
AcDbArc
 50
0.0
 51
90.0
  0
ARC
  5
1CF
330
1F
100
AcDbEntity
  8
1
  6
Continuous
 62
     7
100
AcDbCircle
 10
204.9648240726305
 20
197.1427369240658
 30
0.0
 40
2.0
100
AcDbArc
 50
-90.0
 51
0.0
  0
DIMENSION
  5
1DB
330
1F
100
AcDbEntity
  8
1
100
AcDbDimension
  2
*D1
 10
199.1648240726422
 20
116.642381103113
 30
0.0
 11
214.078015881894
 21
120.392381103113
 31
0.0
 70
    32
  1
32
 71
     5
 42
-1.0
 53
0.00013888888889
  3
ME10_DIM_10
100
AcDbAlignedDimension
 13
230.9648240726305
 23
143.5427369240636
 33
0.0
 14
199.1648240726422
 24
143.5427369240621
 34
0.0
100
AcDbRotatedDimension
  0
DIMENSION
  5
1E6
330
1F
100
AcDbEntity
  8
1
100
AcDbDimension
  2
*D2
 10
247.3928139176684
 20
116.642381103113
 30
0.0
 11
263.2928139176683
 21
120.392381103113
 31
0.0
 70
    32
  1
32
 71
     5
 42
-1.0
 53
0.00013888888889
  3
ME10_DIM_11
100
AcDbAlignedDimension
 13
279.1928139176682
 23
143.5427369240659
 33
0.0
 14
247.3928139176684
 24
143.5427369240659
 34
0.0
100
AcDbRotatedDimension
  0
DIMENSION
  5
1F1
330
1F
100
AcDbEntity
  8
1
100
AcDbDimension
  2
*D3
 10
230.9648240726305
 20
116.642381103113
 30
0.0
 11
239.1788189951495
 21
120.392381103113
 31
0.0
 70
    32
  1
16.5
 71
     5
 42
-1.0
 53
0.00013888888889
  3
ME10_DIM_12
100
AcDbAlignedDimension
 13
247.3928139176684
 23
143.5427369240659
 33
0.0
 14
230.9648240726305
 24
143.5427369240636
 34
0.0
100
AcDbRotatedDimension
  0
INSERT
  5
1FB
330
1F
100
AcDbEntity
  8
1
100
AcDbBlockReference
  2
*D4
 10
0.0
 20
0.0
 30
0.0
  0
ENDSEC
  0
SECTION
  2
OBJECTS
  0
DICTIONARY
  5
C
330
0
100
AcDbDictionary
281
     1
  3
ACAD_GROUP
350
D
  3
ACAD_LAYOUT
350
1A
  3
ACAD_MLINESTYLE
350
17
  3
ACAD_PLOTSETTINGS
350
19
  3
ACAD_PLOTSTYLENAME
350
E
  0
DICTIONARY
  5
D
102
{ACAD_REACTORS
330
C
102
}
330
C
100
AcDbDictionary
281
     1
  0
DICTIONARY
  5
1A
102
{ACAD_REACTORS
330
C
102
}
330
C
100
AcDbDictionary
281
     1
  3
Layout1
350
1E
  3
Layout2
350
26
  3
Model
350
22
  0
DICTIONARY
  5
17
102
{ACAD_REACTORS
330
C
102
}
330
C
100
AcDbDictionary
281
     1
  3
Standard
350
18
  0
DICTIONARY
  5
19
102
{ACAD_REACTORS
330
C
102
}
330
C
100
AcDbDictionary
281
     1
  0
ACDBDICTIONARYWDFLT
  5
E
102
{ACAD_REACTORS
330
C
102
}
330
C
100
AcDbDictionary
281
     1
  3
Normal
350
F
100
AcDbDictionaryWithDefault
340
F
  0
LAYOUT
  5
1E
102
{ACAD_REACTORS
330
1A
102
}
330
1A
100
AcDbPlotSettings
  1

  2

  4

  6

 40
0.0
 41
0.0
 42
0.0
 43
0.0
 44
0.0
 45
0.0
 46
0.0
 47
0.0
 48
0.0
 49
0.0
140
0.0
141
0.0
142
1.0
143
1.0
 70
   688
 72
     0
 73
     0
 74
     5
  7

 75
    16
 76
     0
 77
     2
 78
   300
147
1.0
148
0.0
149
0.0
100
AcDbLayout
  1
Layout1
 70
     1
 71
     1
 10
0.0
 20
0.0
 11
0.0
 21
0.0
 12
0.0
 22
0.0
 32
0.0
 14
0.0
 24
0.0
 34
0.0
 15
0.0
 25
0.0
 35
0.0
146
0.0
 13
0.0
 23
0.0
 33
0.0
 16
1.0
 26
0.0
 36
0.0
 17
0.0
 27
1.0
 37
0.0
 76
     0
330
1B
  0
LAYOUT
  5
26
102
{ACAD_REACTORS
330
1A
102
}
330
1A
100
AcDbPlotSettings
  1

  2

  4

  6

 40
0.0
 41
0.0
 42
0.0
 43
0.0
 44
0.0
 45
0.0
 46
0.0
 47
0.0
 48
0.0
 49
0.0
140
0.0
141
0.0
142
1.0
143
1.0
 70
   688
 72
     0
 73
     0
 74
     5
  7

 75
    16
 76
     0
 77
     2
 78
   300
147
1.0
148
0.0
149
0.0
100
AcDbLayout
  1
Layout2
 70
     1
 71
     2
 10
0.0
 20
0.0
 11
0.0
 21
0.0
 12
0.0
 22
0.0
 32
0.0
 14
0.0
 24
0.0
 34
0.0
 15
0.0
 25
0.0
 35
0.0
146
0.0
 13
0.0
 23
0.0
 33
0.0
 16
1.0
 26
0.0
 36
0.0
 17
0.0
 27
1.0
 37
0.0
 76
     0
330
23
  0
LAYOUT
  5
22
102
{ACAD_REACTORS
330
1A
102
}
330
1A
100
AcDbPlotSettings
  1

  2

  4

  6

 40
0.0
 41
0.0
 42
0.0
 43
0.0
 44
0.0
 45
0.0
 46
0.0
 47
0.0
 48
0.0
 49
0.0
140
0.0
141
0.0
142
1.0
143
1.0
 70
  1712
 72
     0
 73
     0
 74
     0
  7

 75
     0
 76
     0
 77
     2
 78
   300
147
1.0
148
0.0
149
0.0
100
AcDbLayout
  1
Model
 70
     1
 71
     0
 10
0.0
 20
0.0
 11
0.0
 21
0.0
 12
0.0
 22
0.0
 32
0.0
 14
196.3851737597355
 24
114.642381103113
 34
0.0
 15
295.4454162644999
 25
327.6427369240657
 35
0.0
146
0.0
 13
0.0
 23
0.0
 33
0.0
 16
1.0
 26
0.0
 36
0.0
 17
0.0
 27
1.0
 37
0.0
 76
     0
330
1F
  0
MLINESTYLE
  5
18
102
{ACAD_REACTORS
330
17
102
}
330
17
100
AcDbMlineStyle
  2
Standard
 70
     0
  3

 62
   256
 51
90.0
 52
90.0
 71
     2
 49
0.5
 62
   256
  6
BYLAYER
 49
-0.5
 62
   256
  6
BYLAYER
  0
ACDBPLACEHOLDER
  5
F
102
{ACAD_REACTORS
330
E
102
}
330
E
  0
ENDSEC
  0
EOF
