  0
SECTION
  2
HEADER
  9
$ACADVER
  1
AC1018
  9
$ACADMAINTVER
 70
     0
  9
$DWGCODEPAGE
  3
ANSI_1252
  9
$INSBASE
 10
0.0
 20
0.0
 30
0.0
  9
$EXTMIN
 10
728.6352548739069
 20
-91.6404314563043
 30
0.0
  9
$EXTMAX
 10
862.261243512918
 20
11.9559511827811
 30
0.0
  9
$LIMMIN
 10
0.0
 20
0.0
  9
$LIMMAX
 10
12.0
 20
9.0
  9
$ORTHOMODE
 70
     0
  9
$REGENMODE
 70
     1
  9
$FILLMODE
 70
     1
  9
$QTEXTMODE
 70
     0
  9
$MIRRTEXT
 70
     1
  9
$LTSCALE
 40
1.0
  9
$ATTMODE
 70
     1
  9
$TEXTSIZE
 40
0.2
  9
$TRACEWID
 40
0.05
  9
$TEXTSTYLE
  7
Standard
  9
$CLAYER
  8
0
  9
$CELTYPE
  6
ByLayer
  9
$CECOLOR
 62
   256
  9
$CELTSCALE
 40
1.0
  9
$DISPSILH
 70
     0
  9
$DIMSCALE
 40
1.0
  9
$DIMASZ
 40
0.18
  9
$DIMEXO
 40
0.0625
  9
$DIMDLI
 40
0.38
  9
$DIMRND
 40
0.0
  9
$DIMDLE
 40
0.0
  9
$DIMEXE
 40
0.18
  9
$DIMTP
 40
0.0
  9
$DIMTM
 40
0.0
  9
$DIMTXT
 40
0.18
  9
$DIMCEN
 40
0.09
  9
$DIMTSZ
 40
0.0
  9
$DIMTOL
 70
     0
  9
$DIMLIM
 70
     0
  9
$DIMTIH
 70
     1
  9
$DIMTOH
 70
     1
  9
$DIMSE1
 70
     0
  9
$DIMSE2
 70
     0
  9
$DIMTAD
 70
     0
  9
$DIMZIN
 70
     0
  9
$DIMBLK
  1

  9
$DIMASO
 70
     1
  9
$DIMSHO
 70
     1
  9
$DIMPOST
  1

  9
$DIMAPOST
  1

  9
$DIMALT
 70
     0
  9
$DIMALTD
 70
     2
  9
$DIMALTF
 40
25.4
  9
$DIMLFAC
 40
1.0
  9
$DIMTOFL
 70
     0
  9
$DIMTVP
 40
0.0
  9
$DIMTIX
 70
     0
  9
$DIMSOXD
 70
     0
  9
$DIMSAH
 70
     0
  9
$DIMBLK1
  1

  9
$DIMBLK2
  1

  9
$DIMSTYLE
  2
Standard
  9
$DIMCLRD
 70
     0
  9
$DIMCLRE
 70
     0
  9
$DIMCLRT
 70
     0
  9
$DIMTFAC
 40
1.0
  9
$DIMGAP
 40
0.09
  9
$DIMJUST
 70
     0
  9
$DIMSD1
 70
     0
  9
$DIMSD2
 70
     0
  9
$DIMTOLJ
 70
     1
  9
$DIMTZIN
 70
     0
  9
$DIMALTZ
 70
     0
  9
$DIMALTTZ
 70
     0
  9
$DIMUPT
 70
     0
  9
$DIMDEC
 70
     4
  9
$DIMTDEC
 70
     4
  9
$DIMALTU
 70
     2
  9
$DIMALTTD
 70
     2
  9
$DIMTXSTY
  7
Standard
  9
$DIMAUNIT
 70
     0
  9
$DIMADEC
 70
     0
  9
$DIMALTRND
 40
0.0
  9
$DIMAZIN
 70
     0
  9
$DIMDSEP
 70
    46
  9
$DIMATFIT
 70
     3
  9
$DIMFRAC
 70
     0
  9
$DIMLDRBLK
  1

  9
$DIMLUNIT
 70
     2
  9
$DIMLWD
 70
    -2
  9
$DIMLWE
 70
    -2
  9
$DIMTMOVE
 70
     0
  9
$LUNITS
 70
     2
  9
$LUPREC
 70
     4
  9
$SKETCHINC
 40
0.1
  9
$FILLETRAD
 40
0.5
  9
$AUNITS
 70
     0
  9
$AUPREC
 70
     0
  9
$MENU
  1
.
  9
$ELEVATION
 40
0.0
  9
$PELEVATION
 40
0.0
  9
$THICKNESS
 40
0.0
  9
$LIMCHECK
 70
     0
  9
$CHAMFERA
 40
0.5
  9
$CHAMFERB
 40
0.5
  9
$CHAMFERC
 40
1.0
  9
$CHAMFERD
 40
0.0
  9
$SKPOLY
 70
     0
  9
$TDCREATE
 40
2454803.387329827
  9
$TDUCREATE
 40
2454803.34566316
  9
$TDUPDATE
 40
2454803.387329838
  9
$TDUUPDATE
 40
2454803.345663171
  9
$TDINDWG
 40
0.0000000116
  9
$TDUSRTIMER
 40
0.0000000116
  9
$USRTIMER
 70
     1
  9
$ANGBASE
 50
0.0
  9
$ANGDIR
 70
     0
  9
$PDMODE
 70
     0
  9
$PDSIZE
 40
0.0
  9
$PLINEWID
 40
0.0
  9
$SPLFRAME
 70
     0
  9
$SPLINETYPE
 70
     6
  9
$SPLINESEGS
 70
     8
  9
$HANDSEED
  5
1C6
  9
$SURFTAB1
 70
     6
  9
$SURFTAB2
 70
     6
  9
$SURFTYPE
 70
     6
  9
$SURFU
 70
     6
  9
$SURFV
 70
     6
  9
$UCSBASE
  2

  9
$UCSNAME
  2

  9
$UCSORG
 10
0.0
 20
0.0
 30
0.0
  9
$UCSXDIR
 10
1.0
 20
0.0
 30
0.0
  9
$UCSYDIR
 10
0.0
 20
1.0
 30
0.0
  9
$UCSORTHOREF
  2

  9
$UCSORTHOVIEW
 70
     0
  9
$UCSORGTOP
 10
0.0
 20
0.0
 30
0.0
  9
$UCSORGBOTTOM
 10
0.0
 20
0.0
 30
0.0
  9
$UCSORGLEFT
 10
0.0
 20
0.0
 30
0.0
  9
$UCSORGRIGHT
 10
0.0
 20
0.0
 30
0.0
  9
$UCSORGFRONT
 10
0.0
 20
0.0
 30
0.0
  9
$UCSORGBACK
 10
0.0
 20
0.0
 30
0.0
  9
$PUCSBASE
  2

  9
$PUCSNAME
  2

  9
$PUCSORG
 10
0.0
 20
0.0
 30
0.0
  9
$PUCSXDIR
 10
1.0
 20
0.0
 30
0.0
  9
$PUCSYDIR
 10
0.0
 20
1.0
 30
0.0
  9
$PUCSORTHOREF
  2

  9
$PUCSORTHOVIEW
 70
     0
  9
$PUCSORGTOP
 10
0.0
 20
0.0
 30
0.0
  9
$PUCSORGBOTTOM
 10
0.0
 20
0.0
 30
0.0
  9
$PUCSORGLEFT
 10
0.0
 20
0.0
 30
0.0
  9
$PUCSORGRIGHT
 10
0.0
 20
0.0
 30
0.0
  9
$PUCSORGFRONT
 10
0.0
 20
0.0
 30
0.0
  9
$PUCSORGBACK
 10
0.0
 20
0.0
 30
0.0
  9
$USERI1
 70
     0
  9
$USERI2
 70
     0
  9
$USERI3
 70
     0
  9
$USERI4
 70
     0
  9
$USERI5
 70
     0
  9
$USERR1
 40
14.5
  9
$USERR2
 40
0.0
  9
$USERR3
 40
0.0
  9
$USERR4
 40
0.0
  9
$USERR5
 40
0.0
  9
$WORLDVIEW
 70
     1
  9
$SHADEDGE
 70
     3
  9
$SHADEDIF
 70
    70
  9
$TILEMODE
 70
     1
  9
$MAXACTVP
 70
    64
  9
$PINSBASE
 10
0.0
 20
0.0
 30
0.0
  9
$PLIMCHECK
 70
     0
  9
$PEXTMIN
 10
1.00000000000000E+20
 20
1.00000000000000E+20
 30
1.00000000000000E+20
  9
$PEXTMAX
 10
-1.00000000000000E+20
 20
-1.00000000000000E+20
 30
-1.00000000000000E+20
  9
$PLIMMIN
 10
0.0
 20
0.0
  9
$PLIMMAX
 10
12.0
 20
9.0
  9
$UNITMODE
 70
     0
  9
$VISRETAIN
 70
     1
  9
$PLINEGEN
 70
     0
  9
$PSLTSCALE
 70
     1
  9
$TREEDEPTH
 70
  3020
  9
$CMLSTYLE
  2
Standard
  9
$CMLJUST
 70
     0
  9
$CMLSCALE
 40
1.0
  9
$PROXYGRAPHICS
 70
     1
  9
$MEASUREMENT
 70
     1
  9
$CELWEIGHT
370
    -1
  9
$ENDCAPS
280
     0
  9
$JOINSTYLE
280
     0
  9
$LWDISPLAY
290
     0
  9
$INSUNITS
 70
     1
  9
$HYPERLINKBASE
  1

  9
$STYLESHEET
  1

  9
$XEDIT
290
     1
  9
$CEPSNTYPE
380
     0
  9
$PSTYLEMODE
290
     1
  9
$FINGERPRINTGUID
  2
{955D89DD-1B61-4F28-9B0B-CE82DBAFD2A7}
  9
$VERSIONGUID
  2
{FAEB1C32-E019-11D5-929B-00C0DF256EC4}
  9
$EXTNAMES
290
     1
  9
$PSVPSCALE
 40
0.0
  9
$OLESTARTUP
290
     0
  9
$SORTENTS
280
   127
  9
$INDEXCTL
280
     0
  9
$HIDETEXT
280
     1
  9
$XCLIPFRAME
290
     0
  9
$HALOGAP
280
     0
  9
$OBSCOLOR
 70
   257
  9
$OBSLTYPE
280
     0
  9
$INTERSECTIONDISPLAY
280
     0
  9
$INTERSECTIONCOLOR
 70
   257
  9
$DIMASSOC
280
     2
  9
$PROJECTNAME
  1

  0
ENDSEC
  0
SECTION
  2
CLASSES
  0
CLASS
  1
ACDBDICTIONARYWDFLT
  2
AcDbDictionaryWithDefault
  3
ObjectDBX Classes
 90
        0
 91
        3
280
     0
281
     0
  0
CLASS
  1

  2
exOdDbCircle
  3

 90
        0
 91
        3
280
     0
281
     1
  0
CLASS
  1

  2
exOdDbSpline
  3

 90
        0
 91
        3
280
     0
281
     1
  0
ENDSEC
  0
SECTION
  2
TABLES
  0
TABLE
  2
VPORT
  5
8
330
0
100
AcDbSymbolTable
 70
     1
  0
VPORT
  5
29
330
8
100
AcDbSymbolTableRecord
100
AcDbViewportTableRecord
  2
*Active
 70
     0
 10
0.0
 20
0.0
 11
1.0
 21
1.0
 12
795.4482491934125
 22
-39.8422401367616
 13
0.0
 23
0.0
 14
0.5
 24
0.5
 15
0.5
 25
0.5
 16
0.0
 26
0.0
 36
1.0
 17
0.0
 27
0.0
 37
0.0
 40
113.9560209029939
 41
1.60267857142857
 42
50.0
 43
0.0
 44
0.0
 50
0.0
 51
0.0
 71
     0
 72
   100
 73
     1
 74
     3
 75
     0
 76
     0
 77
     0
 78
     0
281
     0
 65
     1
110
0.0
120
0.0
130
0.0
111
1.0
121
0.0
131
0.0
112
0.0
122
1.0
132
0.0
 79
     0
146
0.0
  0
ENDTAB
  0
TABLE
  2
LTYPE
  5
5
330
0
100
AcDbSymbolTable
 70
     8
  0
LTYPE
  5
14
330
5
100
AcDbSymbolTableRecord
100
AcDbLinetypeTableRecord
  2
ByBlock
 70
     0
  3

 72
    65
 73
     0
 40
0.0
  0
LTYPE
  5
15
330
5
100
AcDbSymbolTableRecord
100
AcDbLinetypeTableRecord
  2
ByLayer
 70
     0
  3

 72
    65
 73
     0
 40
0.0
  0
LTYPE
  5
16
330
5
100
AcDbSymbolTableRecord
100
AcDbLinetypeTableRecord
  2
Continuous
 70
     0
  3
Solid line
 72
    65
 73
     0
 40
0.0
  0
LTYPE
  5
2A
330
5
100
AcDbSymbolTableRecord
100
AcDbLinetypeTableRecord
  2
DASHED
 70
     0
  3
Dashed
 72
    65
 73
     2
 40
15.0
 49
7.0
 74
     0
 49
-8.0
 74
     0
  0
LTYPE
  5
2B
330
5
100
AcDbSymbolTableRecord
100
AcDbLinetypeTableRecord
  2
DOTTED
 70
     0
  3
Dotted
 72
    65
 73
     2
 40
1.0
 49
0.0
 74
     0
 49
-1.0
 74
     0
  0
LTYPE
  5
2C
330
5
100
AcDbSymbolTableRecord
100
AcDbLinetypeTableRecord
  2
DOT_CENTER
 70
     0
  3
Dot_Center
 72
    65
 73
     4
 40
14.0
 49
12.0
 74
     0
 49
-1.0
 74
     0
 49
0.0
 74
     0
 49
-1.0
 74
     0
  0
LTYPE
  5
2D
330
5
100
AcDbSymbolTableRecord
100
AcDbLinetypeTableRecord
  2
LONG_DASHED
 70
     0
  3
Long_Dashed
 72
    65
 73
     2
 40
15.0
 49
10.0
 74
     0
 49
-5.0
 74
     0
  0
LTYPE
  5
2E
330
5
100
AcDbSymbolTableRecord
100
AcDbLinetypeTableRecord
  2
DASH_CENTER
 70
     0
  3
Dash_Center
 72
    65
 73
     4
 40
14.0
 49
11.0
 74
     0
 49
-1.0
 74
     0
 49
1.0
 74
     0
 49
-1.0
 74
     0
  0
LTYPE
  5
2F
330
5
100
AcDbSymbolTableRecord
100
AcDbLinetypeTableRecord
  2
PHANTOM
 70
     0
  3
Phantom
 72
    65
 73
     6
 40
13.0
 49
10.0
 74
     0
 49
-1.0
 74
     0
 49
0.0
 74
     0
 49
-1.0
 74
     0
 49
0.0
 74
     0
 49
-1.0
 74
     0
  0
LTYPE
  5
30
330
5
100
AcDbSymbolTableRecord
100
AcDbLinetypeTableRecord
  2
CENTER_DASH_DASH
 70
     0
  3
Center_Dash_Dash
 72
    65
 73
     6
 40
14.0
 49
9.0
 74
     0
 49
-1.0
 74
     0
 49
1.0
 74
     0
 49
-1.0
 74
     0
 49
1.0
 74
     0
 49
-1.0
 74
     0
  0
ENDTAB
  0
TABLE
  2
LAYER
  5
2
330
0
100
AcDbSymbolTable
 70
     2
  0
LAYER
  5
10
330
2
100
AcDbSymbolTableRecord
100
AcDbLayerTableRecord
  2
0
 70
     0
 62
     7
  6
Continuous
370
    -3
390
F
  0
LAYER
  5
31
330
2
100
AcDbSymbolTableRecord
100
AcDbLayerTableRecord
  2
1
 70
     0
 62
     7
  6
Continuous
370
    -3
390
F
  0
ENDTAB
  0
TABLE
  2
STYLE
  5
3
330
0
100
AcDbSymbolTable
 70
     2
  0
STYLE
  5
11
330
3
100
AcDbSymbolTableRecord
100
AcDbTextStyleTableRecord
  2
Standard
 70
     0
 40
0.0
 41
1.0
 50
0.0
 71
     0
 42
0.2
  3
txt
  4

  0
STYLE
  5
156
330
3
100
AcDbSymbolTableRecord
100
AcDbTextStyleTableRecord
  2
CONVERTER_11
 70
     0
 40
0.0
 41
0.9
 50
0.0
 71
     0
 42
0.2
  3
txt.shx
  4

  0
ENDTAB
  0
TABLE
  2
VIEW
  5
6
330
0
100
AcDbSymbolTable
 70
     0
  0
ENDTAB
  0
TABLE
  2
UCS
  5
7
330
0
100
AcDbSymbolTable
 70
     0
  0
ENDTAB
  0
TABLE
  2
APPID
  5
9
330
0
100
AcDbSymbolTable
 70
     1
  0
APPID
  5
12
330
9
100
AcDbSymbolTableRecord
100
AcDbRegAppTableRecord
  2
ACAD
 70
     0
  0
ENDTAB
  0
TABLE
  2
DIMSTYLE
  5
A
330
0
100
AcDbSymbolTable
 70
    11
100
AcDbDimStyleTable
  0
DIMSTYLE
105
27
330
A
100
AcDbSymbolTableRecord
100
AcDbDimStyleTableRecord
  2
Standard
 70
     0
340
11
  0
DIMSTYLE
105
15A
102
{ACAD_REACTORS
330
15B
102
}
330
A
100
AcDbSymbolTableRecord
100
AcDbDimStyleTableRecord
  2
ME10_DIM_10
 70
     0
 41
3.5
 42
0.0
 44
2.0
 73
     0
 74
     0
 77
     1
 78
     8
140
3.5
147
2.0
172
     1
173
     1
176
     2
177
     2
178
     2
271
     3
340
156
  0
DIMSTYLE
105
165
102
{ACAD_REACTORS
330
166
102
}
330
A
100
AcDbSymbolTableRecord
100
AcDbDimStyleTableRecord
  2
ME10_DIM_11
 70
     0
 41
3.5
 42
0.0
 44
2.0
 73
     0
 74
     0
 77
     1
 78
     8
140
3.5
147
2.0
172
     1
173
     1
176
     2
177
     2
178
     2
271
     3
340
156
  0
DIMSTYLE
105
170
102
{ACAD_REACTORS
330
171
102
}
330
A
100
AcDbSymbolTableRecord
100
AcDbDimStyleTableRecord
  2
ME10_DIM_12
 70
     0
 41
3.5
 42
0.0
 44
2.0
 73
     0
 74
     0
 77
     1
 78
     8
140
3.5
147
2.0
172
     1
173
     1
176
     2
177
     2
178
     2
271
     3
340
156
  0
DIMSTYLE
105
17D
102
{ACAD_REACTORS
330
17E
102
}
330
A
100
AcDbSymbolTableRecord
100
AcDbDimStyleTableRecord
  2
ME10_DIM_13
 70
     0
 41
3.5
 42
0.0
 44
2.0
 73
     0
 74
     0
 77
     1
 78
     8
140
3.5
147
2.0
172
     1
173
     1
176
     2
177
     2
178
     2
271
     3
340
156
  0
DIMSTYLE
105
18A
102
{ACAD_REACTORS
330
18B
102
}
330
A
100
AcDbSymbolTableRecord
100
AcDbDimStyleTableRecord
  2
ME10_DIM_14
 70
     0
 41
3.5
 42
0.0
 44
2.0
 73
     0
 74
     0
 77
     1
 78
     8
140
3.5
147
2.0
172
     1
173
     1
176
     2
177
     2
178
     2
271
     3
340
156
  0
DIMSTYLE
105
195
102
{ACAD_REACTORS
330
196
102
}
330
A
100
AcDbSymbolTableRecord
100
AcDbDimStyleTableRecord
  2
ME10_DIM_15
 70
     0
 41
3.5
 42
0.0
 44
2.0
 73
     0
 74
     0
 77
     1
 78
     8
140
3.5
147
2.0
172
     1
173
     1
176
     2
177
     2
178
     2
271
     3
340
156
  0
DIMSTYLE
105
1A2
102
{ACAD_REACTORS
330
1A3
102
}
330
A
100
AcDbSymbolTableRecord
100
AcDbDimStyleTableRecord
  2
ME10_DIM_16
 70
     0
 41
3.5
 42
0.0
 44
2.0
 73
     0
 74
     0
 77
     1
 78
     8
140
3.5
147
2.0
172
     1
173
     1
176
     2
177
     2
178
     2
271
     3
340
156
  0
DIMSTYLE
105
1AD
102
{ACAD_REACTORS
330
1AE
102
}
330
A
100
AcDbSymbolTableRecord
100
AcDbDimStyleTableRecord
  2
ME10_DIM_17
 70
     0
 41
3.5
 42
0.0
 44
2.0
 73
     0
 74
     0
 77
     1
 78
     8
140
3.5
147
2.0
172
     1
173
     1
176
     2
177
     2
178
     2
271
     3
340
156
  0
DIMSTYLE
105
1B9
102
{ACAD_REACTORS
330
1BA
102
}
330
A
100
AcDbSymbolTableRecord
100
AcDbDimStyleTableRecord
  2
ME10_DIM_18
 70
     0
  3
min.<>
 41
3.5
 42
0.0
 44
2.0
 73
     0
 74
     0
 77
     1
 78
     8
140
3.5
147
2.0
172
     1
173
     1
176
     2
177
     2
178
     2
271
     3
340
156
  0
DIMSTYLE
105
1C4
102
{ACAD_REACTORS
330
1C5
102
}
330
A
100
AcDbSymbolTableRecord
100
AcDbDimStyleTableRecord
  2
ME10_DIM_19
 70
     0
 41
3.5
 42
0.0
 44
2.0
 73
     0
 74
     0
 77
     1
 78
     8
140
3.5
147
2.0
172
     1
173
     1
176
     2
177
     2
178
     2
271
     3
340
156
  0
ENDTAB
  0
TABLE
  2
BLOCK_RECORD
  5
1
330
0
100
AcDbSymbolTable
 70
    11
  0
BLOCK_RECORD
  5
1F
330
1
100
AcDbSymbolTableRecord
100
AcDbBlockTableRecord
  2
*Model_Space
340
22
  0
BLOCK_RECORD
  5
1B
330
1
100
AcDbSymbolTableRecord
100
AcDbBlockTableRecord
  2
*Paper_Space
340
1E
  0
BLOCK_RECORD
  5
23
330
1
100
AcDbSymbolTableRecord
100
AcDbBlockTableRecord
  2
*Paper_Space0
340
26
  0
BLOCK_RECORD
  5
14E
330
1
100
AcDbSymbolTableRecord
100
AcDbBlockTableRecord
  2
*D1
340
0
  0
BLOCK_RECORD
  5
15C
330
1
100
AcDbSymbolTableRecord
100
AcDbBlockTableRecord
  2
*D2
340
0
  0
BLOCK_RECORD
  5
167
330
1
100
AcDbSymbolTableRecord
100
AcDbBlockTableRecord
  2
*D3
340
0
  0
BLOCK_RECORD
  5
172
330
1
100
AcDbSymbolTableRecord
100
AcDbBlockTableRecord
  2
*D4
340
0
  0
BLOCK_RECORD
  5
17F
330
1
100
AcDbSymbolTableRecord
100
AcDbBlockTableRecord
  2
*D5
340
0
  0
BLOCK_RECORD
  5
18C
330
1
100
AcDbSymbolTableRecord
100
AcDbBlockTableRecord
  2
*D6
340
0
  0
BLOCK_RECORD
  5
197
330
1
100
AcDbSymbolTableRecord
100
AcDbBlockTableRecord
  2
*D7
340
0
  0
BLOCK_RECORD
  5
1A4
330
1
100
AcDbSymbolTableRecord
100
AcDbBlockTableRecord
  2
*D8
340
0
  0
BLOCK_RECORD
  5
1AF
330
1
100
AcDbSymbolTableRecord
100
AcDbBlockTableRecord
  2
*D9
340
0
  0
BLOCK_RECORD
  5
1BB
330
1
100
AcDbSymbolTableRecord
100
AcDbBlockTableRecord
  2
*D10
340
0
  0
ENDTAB
  0
ENDSEC
  0
SECTION
  2
BLOCKS
  0
BLOCK
  5
20
330
1F
100
AcDbEntity
  8
0
100
AcDbBlockBegin
  2
*Model_Space
 70
     0
 71
     0
 10
0.0
 20
0.0
 30
0.0
  3
*Model_Space
  1

  0
ENDBLK
  5
21
330
1F
100
AcDbEntity
  8
0
100
AcDbBlockEnd
  0
BLOCK
  5
1C
330
1B
100
AcDbEntity
 67
     1
  8
0
100
AcDbBlockBegin
  2
*Paper_Space
 70
     0
 71
     0
 10
0.0
 20
0.0
 30
0.0
  3
*Paper_Space
  1

  0
ENDBLK
  5
1D
330
1B
100
AcDbEntity
 67
     1
  8
0
100
AcDbBlockEnd
  0
BLOCK
  5
24
330
23
100
AcDbEntity
  8
0
100
AcDbBlockBegin
  2
*Paper_Space0
 70
     0
 71
     0
 10
0.0
 20
0.0
 30
0.0
  3
*Paper_Space0
  1

  0
ENDBLK
  5
25
330
23
100
AcDbEntity
  8
0
100
AcDbBlockEnd
  0
BLOCK
  5
158
330
14E
100
AcDbEntity
  8
0
100
AcDbBlockBegin
  2
*D1
 70
     1
 71
     0
 10
0.0
 20
0.0
 30
0.0
  3
*D1
  1

  0
LINE
  5
14F
330
14E
100
AcDbEntity
  8
1
  6
Continuous
 62
     2
100
AcDbLine
 10
850.520944085132
 20
-63.8328919298646
 30
0.0
 11
850.520944085132
 21
-56.8328919298646
 31
0.0
  0
LINE
  5
150
330
14E
100
AcDbEntity
  8
1
  6
Continuous
 62
     2
100
AcDbLine
 10
850.520944085132
 20
-64.83289192986457
 30
0.0
 11
850.520944085132
 21
-63.8328919298646
 31
0.0
  0
LINE
  5
151
330
14E
100
AcDbEntity
  8
1
  6
Continuous
 62
     2
100
AcDbLine
 10
850.520944085132
 20
-71.83289192986457
 30
0.0
 11
850.520944085132
 21
-64.83289192986457
 31
0.0
  0
LINE
  5
152
330
14E
100
AcDbEntity
  8
1
  6
Continuous
 62
     2
100
AcDbLine
 10
780.6810272123015
 20
-64.83289192986457
 30
0.0
 11
852.520944085132
 21
-64.83289192986457
 31
0.0
  0
LINE
  5
153
330
14E
100
AcDbEntity
  8
1
  6
Continuous
 62
     2
100
AcDbLine
 10
841.6810272123015
 20
-63.8328919298646
 30
0.0
 11
852.520944085132
 21
-63.8328919298646
 31
0.0
  0
SOLID
  5
154
330
14E
100
AcDbEntity
  8
1
 62
     2
100
AcDbTrace
 10
850.9817278266879
 20
-68.33289192986457
 30
0.0
 11
850.0601603435761
 21
-68.33289192986457
 31
0.0
 12
850.520944085132
 22
-64.83289192986457
 32
0.0
 13
850.520944085132
 23
-64.83289192986457
 33
0.0
  0
SOLID
  5
155
330
14E
100
AcDbEntity
  8
1
 62
     2
100
AcDbTrace
 10
850.0601603435761
 20
-60.3328919298646
 30
0.0
 11
850.9817278266879
 21
-60.3328919298646
 31
0.0
 12
850.520944085132
 22
-63.8328919298646
 32
0.0
 13
850.520944085132
 23
-63.8328919298646
 33
0.0
  0
MTEXT
  5
157
330
14E
100
AcDbEntity
  8
1
 62
     2
100
AcDbMText
 10
848.520944085132
 20
-68.67993401290131
 30
0.0
 40
3.5
 41
0.0
 71
     7
 72
     1
  1
1
  7
CONVERTER_11
 11
0.0
 21
1.0
 31
0.0
 73
     1
 44
0.60024009603842
  0
ENDBLK
  5
159
330
14E
100
AcDbEntity
  8
0
100
AcDbBlockEnd
  0
BLOCK
  5
163
330
15C
100
AcDbEntity
  8
0
100
AcDbBlockBegin
  2
*D2
 70
     1
 71
     0
 10
0.0
 20
0.0
 30
0.0
  3
*D2
  1

  0
LINE
  5
15D
330
15C
100
AcDbEntity
  8
1
  6
Continuous
 62
     2
100
AcDbLine
 10
747.6810272123015
 20
-74.2566692327123
 30
0.0
 11
783.1810272123015
 21
-74.2566692327123
 31
0.0
  0
LINE
  5
15E
330
15C
100
AcDbEntity
  8
1
  6
Continuous
 62
     2
100
AcDbLine
 10
783.1810272123015
 20
-62.33289192986456
 30
0.0
 11
783.1810272123015
 21
-76.2566692327123
 31
0.0
  0
LINE
  5
15F
330
15C
100
AcDbEntity
  8
1
  6
Continuous
 62
     2
100
AcDbLine
 10
747.6810272123015
 20
-57.26409431081876
 30
0.0
 11
747.6810272123015
 21
-76.2566692327123
 31
0.0
  0
SOLID
  5
160
330
15C
100
AcDbEntity
  8
1
 62
     2
100
AcDbTrace
 10
751.1810272123015
 20
-73.79588549115641
 30
0.0
 11
751.1810272123015
 21
-74.71745297426818
 31
0.0
 12
747.6810272123015
 22
-74.2566692327123
 32
0.0
 13
747.6810272123015
 23
-74.2566692327123
 33
0.0
  0
SOLID
  5
161
330
15C
100
AcDbEntity
  8
1
 62
     2
100
AcDbTrace
 10
779.6810272123015
 20
-74.71745297426818
 30
0.0
 11
779.6810272123015
 21
-73.79588549115641
 31
0.0
 12
783.1810272123015
 22
-74.2566692327123
 32
0.0
 13
783.1810272123015
 23
-74.2566692327123
 33
0.0
  0
MTEXT
  5
162
330
15C
100
AcDbEntity
  8
1
 62
     2
100
AcDbMText
 10
759.998239088984
 20
-72.2566692327123
 30
0.0
 40
3.5
 41
0.0
 71
     7
 72
     1
  1
35.5
  7
CONVERTER_11
 11
0.9999999999970621
 21
2.424068405545307E-6
 31
0.0
 73
     1
 44
0.60024009603842
  0
ENDBLK
  5
164
330
15C
100
AcDbEntity
  8
0
100
AcDbBlockEnd
  0
BLOCK
  5
16E
330
167
100
AcDbEntity
  8
0
100
AcDbBlockBegin
  2
*D3
 70
     1
 71
     0
 10
0.0
 20
0.0
 30
0.0
  3
*D3
  1

  0
LINE
  5
168
330
167
100
AcDbEntity
  8
1
  6
Continuous
 62
     2
100
AcDbLine
 10
786.6810272123016
 20
-74.2566692327123
 30
0.0
 11
821.6810272123015
 21
-74.2566692327123
 31
0.0
  0
LINE
  5
169
330
167
100
AcDbEntity
  8
1
  6
Continuous
 62
     2
100
AcDbLine
 10
821.6810272123015
 20
-57.26409431080691
 30
0.0
 11
821.6810272123015
 21
-76.2566692327123
 31
0.0
  0
LINE
  5
16A
330
167
100
AcDbEntity
  8
1
  6
Continuous
 62
     2
100
AcDbLine
 10
786.6810272123016
 20
-63.8328919298646
 30
0.0
 11
786.6810272123016
 21
-76.2566692327123
 31
0.0
  0
SOLID
  5
16B
330
167
100
AcDbEntity
  8
1
 62
     2
100
AcDbTrace
 10
790.1810272123016
 20
-73.79588549115641
 30
0.0
 11
790.1810272123016
 21
-74.71745297426818
 31
0.0
 12
786.6810272123016
 22
-74.2566692327123
 32
0.0
 13
786.6810272123016
 23
-74.2566692327123
 33
0.0
  0
SOLID
  5
16C
330
167
100
AcDbEntity
  8
1
 62
     2
100
AcDbTrace
 10
818.1810272123015
 20
-74.71745297426818
 30
0.0
 11
818.1810272123015
 21
-73.79588549115641
 31
0.0
 12
821.6810272123015
 22
-74.2566692327123
 32
0.0
 13
821.6810272123015
 23
-74.2566692327123
 33
0.0
  0
MTEXT
  5
16D
330
167
100
AcDbEntity
  8
1
 62
     2
100
AcDbMText
 10
801.5560272123015
 20
-72.2566692327123
 30
0.0
 40
3.5
 41
0.0
 71
     7
 72
     1
  1
35
  7
CONVERTER_11
 11
0.9999999999970621
 21
2.424068405545307E-6
 31
0.0
 73
     1
 44
0.60024009603842
  0
ENDBLK
  5
16F
330
167
100
AcDbEntity
  8
0
100
AcDbBlockEnd
  0
BLOCK
  5
17B
330
172
100
AcDbEntity
  8
0
100
AcDbBlockBegin
  2
*D4
 70
     1
 71
     0
 10
0.0
 20
0.0
 30
0.0
  3
*D4
  1

  0
LINE
  5
173
330
172
100
AcDbEntity
  8
1
  6
Continuous
 62
     2
100
AcDbLine
 10
776.1810272123015
 20
-74.2566692327123
 30
0.0
 11
783.1810272123015
 21
-74.2566692327123
 31
0.0
  0
LINE
  5
174
330
172
100
AcDbEntity
  8
1
  6
Continuous
 62
     2
100
AcDbLine
 10
783.1810272123015
 20
-74.2566692327123
 30
0.0
 11
786.6810272123016
 21
-74.2566692327123
 31
0.0
  0
LINE
  5
175
330
172
100
AcDbEntity
  8
1
  6
Continuous
 62
     2
100
AcDbLine
 10
786.6810272123016
 20
-74.2566692327123
 30
0.0
 11
793.6810272123016
 21
-74.2566692327123
 31
0.0
  0
LINE
  5
176
330
172
100
AcDbEntity
  8
1
  6
Continuous
 62
     2
100
AcDbLine
 10
786.6810272123016
 20
-63.8328919298646
 30
0.0
 11
786.6810272123016
 21
-76.2566692327123
 31
0.0
  0
LINE
  5
177
330
172
100
AcDbEntity
  8
1
  6
Continuous
 62
     2
100
AcDbLine
 10
783.1810272123015
 20
-62.33289192986456
 30
0.0
 11
783.1810272123015
 21
-76.2566692327123
 31
0.0
  0
SOLID
  5
178
330
172
100
AcDbEntity
  8
1
 62
     2
100
AcDbTrace
 10
779.6810272123015
 20
-74.71745297426818
 30
0.0
 11
779.6810272123015
 21
-73.79588549115641
 31
0.0
 12
783.1810272123015
 22
-74.2566692327123
 32
0.0
 13
783.1810272123015
 23
-74.2566692327123
 33
0.0
  0
SOLID
  5
179
330
172
100
AcDbEntity
  8
1
 62
     2
100
AcDbTrace
 10
790.1810272123016
 20
-73.79588549115641
 30
0.0
 11
790.1810272123016
 21
-74.71745297426818
 31
0.0
 12
786.6810272123016
 22
-74.2566692327123
 32
0.0
 13
786.6810272123016
 23
-74.2566692327123
 33
0.0
  0
MTEXT
  5
17A
330
172
100
AcDbEntity
  8
1
 62
     2
100
AcDbMText
 10
779.7988011752119
 20
-79.4645313174713
 30
0.0
 40
3.5
 41
0.0
 71
     7
 72
     1
  1
3.5
  7
CONVERTER_11
 11
0.9999999999970621
 21
2.424068405545307E-6
 31
0.0
 73
     1
 44
0.60024009603842
  0
ENDBLK
  5
17C
330
172
100
AcDbEntity
  8
0
100
AcDbBlockEnd
  0
BLOCK
  5
188
330
17F
100
AcDbEntity
  8
0
100
AcDbBlockBegin
  2
*D5
 70
     1
 71
     0
 10
0.0
 20
0.0
 30
0.0
  3
*D5
  1

  0
LINE
  5
180
330
17F
100
AcDbEntity
  8
1
  6
Continuous
 62
     2
100
AcDbLine
 10
734.1352548739069
 20
-71.83289192986466
 30
0.0
 11
734.1352548739069
 21
-64.83289192986466
 31
0.0
  0
LINE
  5
181
330
17F
100
AcDbEntity
  8
1
  6
Continuous
 62
     2
100
AcDbLine
 10
734.1352548739069
 20
-64.83289192986466
 30
0.0
 11
734.1352548739069
 21
-59.83289192986464
 31
0.0
  0
LINE
  5
182
330
17F
100
AcDbEntity
  8
1
  6
Continuous
 62
     2
100
AcDbLine
 10
734.1352548739069
 20
-59.83289192986464
 30
0.0
 11
734.1352548739069
 21
-52.83289192986464
 31
0.0
  0
LINE
  5
183
330
17F
100
AcDbEntity
  8
1
  6
Continuous
 62
     2
100
AcDbLine
 10
756.6810272123015
 20
-59.83289192986464
 30
0.0
 11
732.1352548739069
 21
-59.83289192986464
 31
0.0
  0
LINE
  5
184
330
17F
100
AcDbEntity
  8
1
  6
Continuous
 62
     2
100
AcDbLine
 10
743.6810272123009
 20
-64.83289192986466
 30
0.0
 11
732.1352548739069
 21
-64.83289192986466
 31
0.0
  0
SOLID
  5
185
330
17F
100
AcDbEntity
  8
1
 62
     2
100
AcDbTrace
 10
734.5960386154628
 20
-68.33289192986466
 30
0.0
 11
733.674471132351
 21
-68.33289192986466
 31
0.0
 12
734.1352548739069
 22
-64.83289192986466
 32
0.0
 13
734.1352548739069
 23
-64.83289192986466
 33
0.0
  0
SOLID
  5
186
330
17F
100
AcDbEntity
  8
1
 62
     2
100
AcDbTrace
 10
733.674471132351
 20
-56.33289192986464
 30
0.0
 11
734.5960386154628
 21
-56.33289192986464
 31
0.0
 12
734.1352548739069
 22
-59.83289192986464
 32
0.0
 13
734.1352548739069
 23
-59.83289192986464
 33
0.0
  0
MTEXT
  5
187
330
17F
100
AcDbEntity
  8
1
 62
     2
100
AcDbMText
 10
732.1352548739069
 20
-69.4393105028543
 30
0.0
 40
3.5
 41
0.0
 71
     7
 72
     1
  1
5
  7
CONVERTER_11
 11
0.0
 21
1.0
 31
0.0
 73
     1
 44
0.60024009603842
  0
ENDBLK
  5
189
330
17F
100
AcDbEntity
  8
0
100
AcDbBlockEnd
  0
BLOCK
  5
193
330
18C
100
AcDbEntity
  8
0
100
AcDbBlockBegin
  2
*D6
 70
     1
 71
     0
 10
0.0
 20
0.0
 30
0.0
  3
*D6
  1

  0
LINE
  5
18D
330
18C
100
AcDbEntity
  8
1
  6
Continuous
 62
     2
100
AcDbLine
 10
734.1352548739069
 20
-59.83289192986464
 30
0.0
 11
734.1352548739069
 21
-27.83289192986464
 31
0.0
  0
LINE
  5
18E
330
18C
100
AcDbEntity
  8
1
  6
Continuous
 62
     2
100
AcDbLine
 10
756.6810272123033
 20
-27.83289192986464
 30
0.0
 11
732.1352548739069
 21
-27.83289192986464
 31
0.0
  0
LINE
  5
18F
330
18C
100
AcDbEntity
  8
1
  6
Continuous
 62
     2
100
AcDbLine
 10
756.6810272123015
 20
-59.83289192986464
 30
0.0
 11
732.1352548739069
 21
-59.83289192986464
 31
0.0
  0
SOLID
  5
190
330
18C
100
AcDbEntity
  8
1
 62
     2
100
AcDbTrace
 10
733.674471132351
 20
-56.33289192986464
 30
0.0
 11
734.5960386154628
 21
-56.33289192986464
 31
0.0
 12
734.1352548739069
 22
-59.83289192986464
 32
0.0
 13
734.1352548739069
 23
-59.83289192986464
 33
0.0
  0
SOLID
  5
191
330
18C
100
AcDbEntity
  8
1
 62
     2
100
AcDbTrace
 10
734.5960386154628
 20
-31.33289192986464
 30
0.0
 11
733.674471132351
 21
-31.33289192986464
 31
0.0
 12
734.1352548739069
 22
-27.83289192986464
 32
0.0
 13
734.1352548739069
 23
-27.83289192986464
 33
0.0
  0
MTEXT
  5
192
330
18C
100
AcDbEntity
  8
1
 62
     2
100
AcDbMText
 10
732.1352548739069
 20
-46.45789192986464
 30
0.0
 40
3.5
 41
0.0
 71
     7
 72
     1
  1
32
  7
CONVERTER_11
 11
0.0
 21
1.0
 31
0.0
 73
     1
 44
0.60024009603842
  0
ENDBLK
  5
194
330
18C
100
AcDbEntity
  8
0
100
AcDbBlockEnd
  0
BLOCK
  5
1A0
330
197
100
AcDbEntity
  8
0
100
AcDbBlockBegin
  2
*D7
 70
     1
 71
     0
 10
0.0
 20
0.0
 30
0.0
  3
*D7
  1

  0
LINE
  5
198
330
197
100
AcDbEntity
  8
1
  6
Continuous
 62
     2
100
AcDbLine
 10
860.261243512918
 20
-70.8328919298646
 30
0.0
 11
860.261243512918
 21
-63.8328919298646
 31
0.0
  0
LINE
  5
199
330
197
100
AcDbEntity
  8
1
  6
Continuous
 62
     2
100
AcDbLine
 10
860.261243512918
 20
-63.8328919298646
 30
0.0
 11
860.261243512918
 21
-59.83289192985299
 31
0.0
  0
LINE
  5
19A
330
197
100
AcDbEntity
  8
1
  6
Continuous
 62
     2
100
AcDbLine
 10
860.261243512918
 20
-59.83289192985299
 30
0.0
 11
860.261243512918
 21
-52.83289192985299
 31
0.0
  0
LINE
  5
19B
330
197
100
AcDbEntity
  8
1
  6
Continuous
 62
     2
100
AcDbLine
 10
823.1810272123015
 20
-59.83289192985299
 30
0.0
 11
862.261243512918
 21
-59.83289192985299
 31
0.0
  0
LINE
  5
19C
330
197
100
AcDbEntity
  8
1
  6
Continuous
 62
     2
100
AcDbLine
 10
841.6810272123015
 20
-63.8328919298646
 30
0.0
 11
862.261243512918
 21
-63.8328919298646
 31
0.0
  0
SOLID
  5
19D
330
197
100
AcDbEntity
  8
1
 62
     2
100
AcDbTrace
 10
860.7220272544739
 20
-67.3328919298646
 30
0.0
 11
859.8004597713621
 21
-67.3328919298646
 31
0.0
 12
860.261243512918
 22
-63.8328919298646
 32
0.0
 13
860.261243512918
 23
-63.8328919298646
 33
0.0
  0
SOLID
  5
19E
330
197
100
AcDbEntity
  8
1
 62
     2
100
AcDbTrace
 10
859.8004597713621
 20
-56.33289192985299
 30
0.0
 11
860.7220272544739
 21
-56.33289192985299
 31
0.0
 12
860.261243512918
 22
-59.83289192985299
 32
0.0
 13
860.261243512918
 23
-59.83289192985299
 33
0.0
  0
MTEXT
  5
19F
330
197
100
AcDbEntity
  8
1
 62
     2
100
AcDbMText
 10
858.261243512918
 20
-68.6319752230313
 30
0.0
 40
3.5
 41
0.0
 71
     7
 72
     1
  1
4
  7
CONVERTER_11
 11
0.0
 21
1.0
 31
0.0
 73
     1
 44
0.60024009603842
  0
ENDBLK
  5
1A1
330
197
100
AcDbEntity
  8
0
100
AcDbBlockEnd
  0
BLOCK
  5
1AB
330
1A4
100
AcDbEntity
  8
0
100
AcDbBlockBegin
  2
*D8
 70
     1
 71
     0
 10
0.0
 20
0.0
 30
0.0
  3
*D8
  1

  0
LINE
  5
1A5
330
1A4
100
AcDbEntity
  8
1
  6
Continuous
 62
     2
100
AcDbLine
 10
860.261243512918
 20
-59.83289192985299
 30
0.0
 11
860.261243512918
 21
-27.83289192986457
 31
0.0
  0
LINE
  5
1A6
330
1A4
100
AcDbEntity
  8
1
  6
Continuous
 62
     2
100
AcDbLine
 10
823.1810272123015
 20
-27.83289192986457
 30
0.0
 11
862.261243512918
 21
-27.83289192986457
 31
0.0
  0
LINE
  5
1A7
330
1A4
100
AcDbEntity
  8
1
  6
Continuous
 62
     2
100
AcDbLine
 10
823.1810272123015
 20
-59.83289192985299
 30
0.0
 11
862.261243512918
 21
-59.83289192985299
 31
0.0
  0
SOLID
  5
1A8
330
1A4
100
AcDbEntity
  8
1
 62
     2
100
AcDbTrace
 10
859.8004597713621
 20
-56.33289192985299
 30
0.0
 11
860.7220272544739
 21
-56.33289192985299
 31
0.0
 12
860.261243512918
 22
-59.83289192985299
 32
0.0
 13
860.261243512918
 23
-59.83289192985299
 33
0.0
  0
SOLID
  5
1A9
330
1A4
100
AcDbEntity
  8
1
 62
     2
100
AcDbTrace
 10
860.7220272544739
 20
-31.33289192986457
 30
0.0
 11
859.8004597713621
 21
-31.33289192986457
 31
0.0
 12
860.261243512918
 22
-27.83289192986457
 32
0.0
 13
860.261243512918
 23
-27.83289192986457
 33
0.0
  0
MTEXT
  5
1AA
330
1A4
100
AcDbEntity
  8
1
 62
     2
100
AcDbMText
 10
858.261243512918
 20
-46.45789192985879
 30
0.0
 40
3.5
 41
0.0
 71
     7
 72
     1
  1
32
  7
CONVERTER_11
 11
0.0
 21
1.0
 31
0.0
 73
     1
 44
0.60024009603842
  0
ENDBLK
  5
1AC
330
1A4
100
AcDbEntity
  8
0
100
AcDbBlockEnd
  0
BLOCK
  5
1B7
330
1AF
100
AcDbEntity
  8
0
100
AcDbBlockBegin
  2
*D9
 70
     1
 71
     0
 10
0.0
 20
0.0
 30
0.0
  3
*D9
  1

  0
LINE
  5
1B0
330
1AF
100
AcDbEntity
  8
1
  6
Continuous
 62
     2
100
AcDbLine
 10
741.181027212301
 20
-89.6404314563043
 30
0.0
 11
783.1810272123015
 21
-89.6404314563043
 31
0.0
  0
LINE
  5
1B1
330
1AF
100
AcDbEntity
  8
1
  6
Continuous
 62
     2
100
AcDbLine
 10
783.1810272123015
 20
-62.33289192986456
 30
0.0
 11
783.1810272123015
 21
-75.7885206913883
 31
0.0
  0
LINE
  5
1B2
330
1AF
100
AcDbEntity
  8
1
  6
Continuous
 62
     2
100
AcDbLine
 10
783.1810272123015
 20
-81.4393929544703
 30
0.0
 11
783.1810272123015
 21
-91.6404314563043
 31
0.0
  0
LINE
  5
1B3
330
1AF
100
AcDbEntity
  8
1
  6
Continuous
 62
     2
100
AcDbLine
 10
741.181027212301
 20
-62.33289192986466
 30
0.0
 11
741.181027212301
 21
-91.6404314563043
 31
0.0
  0
SOLID
  5
1B4
330
1AF
100
AcDbEntity
  8
1
 62
     2
100
AcDbTrace
 10
744.681027212301
 20
-89.17964771474841
 30
0.0
 11
744.681027212301
 21
-90.10121519786018
 31
0.0
 12
741.181027212301
 22
-89.6404314563043
 32
0.0
 13
741.181027212301
 23
-89.6404314563043
 33
0.0
  0
SOLID
  5
1B5
330
1AF
100
AcDbEntity
  8
1
 62
     2
100
AcDbTrace
 10
779.6810272123015
 20
-90.10121519786018
 30
0.0
 11
779.6810272123015
 21
-89.17964771474841
 31
0.0
 12
783.1810272123015
 22
-89.6404314563043
 32
0.0
 13
783.1810272123015
 23
-89.6404314563043
 33
0.0
  0
MTEXT
  5
1B6
330
1AF
100
AcDbEntity
  8
1
 62
     2
100
AcDbMText
 10
752.657799659048
 20
-87.64045928460959
 30
0.0
 40
3.5
 41
0.0
 71
     7
 72
     1
  1
\C2;min.\C2;42
  7
CONVERTER_11
 11
0.9999999999970621
 21
2.424068405545307E-6
 31
0.0
 73
     1
 44
0.60024009603842
  0
ENDBLK
  5
1B8
330
1AF
100
AcDbEntity
  8
0
100
AcDbBlockEnd
  0
BLOCK
  5
1C2
330
1BB
100
AcDbEntity
  8
0
100
AcDbBlockBegin
  2
*D10
 70
     1
 71
     0
 10
0.0
 20
0.0
 30
0.0
  3
*D10
  1

  0
LINE
  5
1BC
330
1BB
100
AcDbEntity
  8
1
  6
Continuous
 62
     2
100
AcDbLine
 10
786.6810272123016
 20
-89.6404314563043
 30
0.0
 11
823.1810272123015
 21
-89.6404314563043
 31
0.0
  0
LINE
  5
1BD
330
1BB
100
AcDbEntity
  8
1
  6
Continuous
 62
     2
100
AcDbLine
 10
823.1810272123015
 20
-59.83289192985299
 30
0.0
 11
823.1810272123015
 21
-91.6404314563043
 31
0.0
  0
LINE
  5
1BE
330
1BB
100
AcDbEntity
  8
1
  6
Continuous
 62
     2
100
AcDbLine
 10
786.6810272123016
 20
-63.8328919298646
 30
0.0
 11
786.6810272123016
 21
-91.6404314563043
 31
0.0
  0
SOLID
  5
1BF
330
1BB
100
AcDbEntity
  8
1
 62
     2
100
AcDbTrace
 10
790.1810272123016
 20
-89.17964771474841
 30
0.0
 11
790.1810272123016
 21
-90.10121519786018
 31
0.0
 12
786.6810272123016
 22
-89.6404314563043
 32
0.0
 13
786.6810272123016
 23
-89.6404314563043
 33
0.0
  0
SOLID
  5
1C0
330
1BB
100
AcDbEntity
  8
1
 62
     2
100
AcDbTrace
 10
819.6810272123015
 20
-90.10121519786018
 30
0.0
 11
819.6810272123015
 21
-89.17964771474841
 31
0.0
 12
823.1810272123015
 22
-89.6404314563043
 32
0.0
 13
823.1810272123015
 23
-89.6404314563043
 33
0.0
  0
MTEXT
  5
1C1
330
1BB
100
AcDbEntity
  8
1
 62
     2
100
AcDbMText
 10
800.1622772123015
 20
-87.6404314563043
 30
0.0
 40
3.5
 41
0.0
 71
     7
 72
     1
  1
36.5
  7
CONVERTER_11
 11
0.9999999999970621
 21
2.424068405545307E-6
 31
0.0
 73
     1
 44
0.60024009603842
  0
ENDBLK
  5
1C3
330
1BB
100
AcDbEntity
  8
0
100
AcDbBlockEnd
  0
ENDSEC
  0
SECTION
  2
ENTITIES
  0
LINE
  5
32
330
1F
100
AcDbEntity
  8
1
  6
Continuous
 62
     7
100
AcDbLine
 10
781.6810272123015
 20
-59.83289192986462
 30
0.0
 11
770.1810272123015
 21
-59.83289192986464
 31
0.0
  0
LINE
  5
33
330
1F
100
AcDbEntity
  8
1
  6
Continuous
 62
     7
100
AcDbLine
 10
781.6810272123015
 20
-27.83289192986459
 30
0.0
 11
783.1810272123015
 21
-27.83289192986459
 31
0.0
  0
LINE
  5
34
330
1F
100
AcDbEntity
  8
1
  6
Continuous
 62
     7
100
AcDbLine
 10
781.6810272123015
 20
-27.83289192986459
 30
0.0
 11
781.6810272123015
 21
-7.33289192986465
 31
0.0
  0
LINE
  5
35
330
1F
100
AcDbEntity
  8
1
  6
Continuous
 62
     7
100
AcDbLine
 10
781.6810272123015
 20
-62.3328919298646
 30
0.0
 11
781.6810272123015
 21
-59.83289192986462
 31
0.0
  0
LINE
  5
36
330
1F
100
AcDbEntity
  8
1
  6
Continuous
 62
     7
100
AcDbLine
 10
783.1810272123015
 20
-59.83289192986463
 30
0.0
 11
783.1810272123015
 21
-62.3328919298646
 31
0.0
  0
LINE
  5
37
330
1F
100
AcDbEntity
  8
1
  6
Continuous
 62
     7
100
AcDbLine
 10
783.1810272123015
 20
-21.83289192986465
 30
0.0
 11
783.1810272123015
 21
-27.83289192986459
 31
0.0
  0
LINE
  5
38
330
1F
100
AcDbEntity
  8
1
  6
Continuous
 62
     7
100
AcDbLine
 10
796.6810272123015
 20
-18.33289192986465
 30
0.0
 11
796.6810272123015
 21
11.75981090783582
 31
0.0
  0
LINE
  5
39
330
1F
100
AcDbEntity
  8
1
  6
Continuous
 62
     7
100
AcDbLine
 10
798.1810272123015
 20
-18.83289192986465
 30
0.0
 11
798.1810272123015
 21
11.75981090783582
 31
0.0
  0
LINE
  5
3A
330
1F
100
AcDbEntity
  8
1
  6
Continuous
 62
     7
100
AcDbLine
 10
794.1701638601638
 20
-20.83289192986465
 30
0.0
 11
796.1810272123015
 21
-20.83289192986465
 31
0.0
  0
LINE
  5
3B
330
1F
100
AcDbEntity
  8
1
  6
Continuous
 62
     7
100
AcDbLine
 10
794.8217765465846
 20
-19.33289192986465
 30
0.0
 11
795.6810272123015
 21
-19.33289192986465
 31
0.0
  0
LINE
  5
3C
330
1F
100
AcDbEntity
  8
1
  6
Continuous
 62
     7
100
AcDbLine
 10
796.6299159517351
 20
-7.72112049751848
 30
0.0
 11
793.8558507202953
 21
-18.07407288476217
 31
0.0
  0
LINE
  5
3D
330
1F
100
AcDbEntity
  8
1
  6
Continuous
 62
     7
100
AcDbLine
 10
783.1810272123015
 20
-5.83289192986477
 30
0.0
 11
795.1810272123015
 21
-5.83289192986465
 31
0.0
  0
LINE
  5
3E
330
1F
100
AcDbEntity
  8
1
  6
Continuous
 62
     7
100
AcDbLine
 10
795.0123774390255
 20
-7.96230145241599
 30
0.0
 11
794.1691285726453
 21
-11.10934906517217
 31
0.0
  0
LINE
  5
3F
330
1F
100
AcDbEntity
  8
1
  6
Continuous
 62
     7
100
AcDbLine
 10
783.6810272123015
 20
-7.33289192986465
 30
0.0
 11
786.1810272123015
 21
-7.33289192986465
 31
0.0
  0
LINE
  5
40
330
1F
100
AcDbEntity
  8
1
  6
Continuous
 62
     7
100
AcDbLine
 10
783.1810272123015
 20
-21.83289192986465
 30
0.0
 11
783.1810272123015
 21
-10.33289192986465
 31
0.0
  0
LINE
  5
41
330
1F
100
AcDbEntity
  8
1
  6
Continuous
 62
     7
100
AcDbLine
 10
785.1810272123015
 20
-23.83289192986465
 30
0.0
 11
792.9869479035439
 21
-23.83289192986465
 31
0.0
  0
LINE
  5
42
330
1F
100
AcDbEntity
  8
1
  6
Continuous
 62
     7
100
AcDbLine
 10
786.1810272123015
 20
-7.33289192986465
 30
0.0
 11
791.271351093778
 21
-7.33289192986465
 31
0.0
  0
LINE
  5
43
330
1F
100
AcDbEntity
  8
1
  6
Continuous
 62
     7
100
AcDbLine
 10
783.1810272123015
 20
-10.33289192986465
 30
0.0
 11
783.1810272123015
 21
-7.83289192986465
 31
0.0
  0
LINE
  5
44
330
1F
100
AcDbEntity
  8
1
  6
Continuous
 62
     7
100
AcDbLine
 10
791.271351093778
 20
-7.33289192986465
 30
0.0
 11
794.529414525881
 21
-7.33289192986465
 31
0.0
  0
LINE
  5
45
330
1F
100
AcDbEntity
  8
1
  6
Continuous
 62
     7
100
AcDbLine
 10
794.1691285726453
 20
-11.10934906517217
 30
0.0
 11
792.2383122075859
 21
-18.3152538396597
 31
0.0
  0
LINE
  5
46
330
1F
100
AcDbEntity
  8
1
  6
Continuous
 62
     7
100
AcDbLine
 10
785.1810272123015
 20
-22.83289192986465
 30
0.0
 11
792.9869479035439
 21
-22.83289192986465
 31
0.0
  0
LINE
  5
47
330
1F
100
AcDbEntity
  8
1
  6
Continuous
 62
     7
100
AcDbLine
 10
784.1810272123015
 20
-21.83289192986465
 30
0.0
 11
784.1810272123015
 21
-10.33289192986465
 31
0.0
  0
LINE
  5
48
330
1F
100
AcDbEntity
  8
1
  6
Continuous
 62
     7
100
AcDbLine
 10
786.1810272123015
 20
-8.33289192986465
 30
0.0
 11
791.271351093778
 21
-8.33289192986465
 31
0.0
  0
LINE
  5
49
330
1F
100
AcDbEntity
  8
1
  6
Continuous
 62
     7
100
AcDbLine
 10
793.2032027463562
 20
-10.85053002006975
 30
0.0
 11
791.2723863812965
 21
-18.05643479455714
 31
0.0
  0
LINE
  5
4A
330
1F
100
AcDbEntity
  8
1
  6
Continuous
 62
     7
100
AcDbLine
 10
741.181027212301
 20
-54.83289192986466
 30
0.0
 11
741.181027212301
 21
-62.3328919298647
 31
0.0
  0
LINE
  5
4B
330
1F
100
AcDbEntity
  8
1
  6
Continuous
 62
     7
100
AcDbLine
 10
743.681027212301
 20
-64.8328919298647
 30
0.0
 11
780.6810272123015
 21
-64.8328919298646
 31
0.0
  0
LINE
  5
4C
330
1F
100
AcDbEntity
  8
1
  6
Continuous
 62
     7
100
AcDbLine
 10
780.6810272123015
 20
-63.3328919298646
 30
0.0
 11
743.681027212301
 21
-63.3328919298647
 31
0.0
  0
LINE
  5
4D
330
1F
100
AcDbEntity
  8
1
  6
Continuous
 62
     7
100
AcDbLine
 10
742.681027212301
 20
-62.3328919298647
 30
0.0
 11
742.681027212301
 21
-54.83289192986466
 31
0.0
  0
LINE
  5
4E
330
1F
100
AcDbEntity
  8
1
  6
Continuous
 62
     7
100
AcDbLine
 10
741.181027212301
 20
-54.83289192986466
 30
0.0
 11
742.681027212301
 21
-54.83289192986466
 31
0.0
  0
LINE
  5
4F
330
1F
100
AcDbEntity
  8
1
  6
Continuous
 62
     7
100
AcDbLine
 10
748.9722675608614
 20
-58.7494964139311
 30
0.0
 11
756.6810272123015
 21
-59.83289192986464
 31
0.0
  0
LINE
  5
50
330
1F
100
AcDbEntity
  8
1
  6
Continuous
 62
     7
100
AcDbLine
 10
747.6810272123015
 20
-30.40168954891078
 30
0.0
 11
747.6810272123015
 21
-57.26409431081876
 31
0.0
  0
LINE
  5
51
330
1F
100
AcDbEntity
  8
1
  6
Continuous
 62
     7
100
AcDbLine
 10
748.9722675608614
 20
-28.91628744579843
 30
0.0
 11
756.6810272123033
 21
-27.83289192986464
 31
0.0
  0
LINE
  5
52
330
1F
100
AcDbEntity
  8
1
  6
Continuous
 62
     7
100
AcDbLine
 10
748.6810272123015
 20
-57.26409431081878
 30
0.0
 11
748.6810272123015
 21
-30.40168954891044
 31
0.0
  0
LINE
  5
53
330
1F
100
AcDbEntity
  8
1
  6
Continuous
 62
     7
100
AcDbLine
 10
756.7722938514263
 20
-58.8358910469891
 30
0.0
 11
749.1114406618215
 21
-57.75922834518956
 31
0.0
  0
LINE
  5
54
330
1F
100
AcDbEntity
  8
1
  6
Continuous
 62
     7
100
AcDbLine
 10
775.1810272123015
 20
-28.83289192986457
 30
0.0
 11
781.1810272123015
 21
-28.83289192986459
 31
0.0
  0
LINE
  5
55
330
1F
100
AcDbEntity
  8
1
  6
Continuous
 62
     7
100
AcDbLine
 10
775.1810272123015
 20
-27.83289192986457
 30
0.0
 11
781.1810272123015
 21
-27.83289192986459
 31
0.0
  0
LINE
  5
56
330
1F
100
AcDbEntity
  8
1
  6
Continuous
 62
     7
100
AcDbLine
 10
775.1810272123015
 20
-28.83289192986457
 30
0.0
 11
775.1810272123015
 21
-27.83289192986457
 31
0.0
  0
LINE
  5
57
330
1F
100
AcDbEntity
  8
1
  6
Continuous
 62
     7
100
AcDbLine
 10
783.1810272123015
 20
-59.83289192986463
 30
0.0
 11
781.6810272123015
 21
-59.83289192986462
 31
0.0
  0
LINE
  5
58
330
1F
100
AcDbEntity
  8
1
  6
Continuous
 62
     7
100
AcDbLine
 10
749.1114406618215
 20
-29.90655551453968
 30
0.0
 11
756.7509540242439
 21
-28.83289192986476
 31
0.0
  0
LINE
  5
59
330
1F
100
AcDbEntity
  8
1
  6
Continuous
 62
     7
100
AcDbLine
 10
756.7509540242439
 20
-28.83289192986476
 30
0.0
 11
775.1810272123015
 21
-28.83289192986457
 31
0.0
  0
LINE
  5
5A
330
1F
100
AcDbEntity
  8
1
  6
Continuous
 62
     7
100
AcDbLine
 10
781.1810272123015
 20
-27.83289192986459
 30
0.0
 11
781.6810272123015
 21
-27.83289192986459
 31
0.0
  0
LINE
  5
5B
330
1F
100
AcDbEntity
  8
1
  6
Continuous
 62
     7
100
AcDbLine
 10
781.1810272123015
 20
-27.83289192986459
 30
0.0
 11
781.1810272123015
 21
-28.83289192986459
 31
0.0
  0
LINE
  5
5C
330
1F
100
AcDbEntity
  8
1
  6
Continuous
 62
     7
100
AcDbLine
 10
756.6810272123033
 20
-27.83289192986464
 30
0.0
 11
775.1810272123015
 21
-27.83289192986457
 31
0.0
  0
LINE
  5
5D
330
1F
100
AcDbEntity
  8
1
  6
Continuous
 62
     7
100
AcDbLine
 10
770.1810272123015
 20
-59.83289192986464
 30
0.0
 11
770.1810272123016
 21
-58.83364745533496
 31
0.0
  0
LINE
  5
5E
330
1F
100
AcDbEntity
  8
1
  6
Continuous
 62
     7
100
AcDbLine
 10
770.1810272123015
 20
-59.83289192986464
 30
0.0
 11
756.6810272123015
 21
-59.83289192986464
 31
0.0
  0
LINE
  5
5F
330
1F
100
AcDbEntity
  8
1
  6
Continuous
 62
     7
100
AcDbLine
 10
770.1810272123016
 20
-58.83364745533496
 30
0.0
 11
756.7722938514263
 21
-58.8358910469891
 31
0.0
  0
LINE
  5
60
330
1F
100
AcDbEntity
  8
1
  6
Continuous
 62
     7
100
AcDbLine
 10
783.1810272123015
 20
-29.64914343106625
 30
0.0
 11
783.1810272123015
 21
-27.83289192986459
 31
0.0
  0
LINE
  5
61
330
1F
100
AcDbEntity
  8
1
  6
Continuous
 62
     7
100
AcDbLine
 10
783.1810272123015
 20
-59.83289192986463
 30
0.0
 11
783.1810272123015
 21
-40.5643289822405
 31
0.0
  0
LINE
  5
62
330
1F
100
AcDbEntity
  8
1
  6
Continuous
 62
     7
100
AcDbLine
 10
779.1810272123015
 20
-60.8328919298648
 30
0.0
 11
779.1810272123015
 21
-59.83289192986462
 31
0.0
  0
LINE
  5
63
330
1F
100
AcDbEntity
  8
1
  6
Continuous
 62
     7
100
AcDbLine
 10
779.1810272123015
 20
-27.83289192986459
 30
0.0
 11
779.1810272123015
 21
-27.33289192986476
 31
0.0
  0
LINE
  5
64
330
1F
100
AcDbEntity
  8
1
  6
Continuous
 62
     7
100
AcDbLine
 10
773.1810272123015
 20
-27.33289192986476
 30
0.0
 11
773.1810272123015
 21
-27.83289192986459
 31
0.0
  0
LINE
  5
65
330
1F
100
AcDbEntity
  8
1
  6
Continuous
 62
     7
100
AcDbLine
 10
770.1810272123015
 20
-27.83289192986459
 30
0.0
 11
770.1810272123015
 21
-27.33289192986476
 31
0.0
  0
LINE
  5
66
330
1F
100
AcDbEntity
  8
1
  6
Continuous
 62
     7
100
AcDbLine
 10
770.1810272123015
 20
-24.63289192986494
 30
0.0
 11
770.1810272123015
 21
-23.33289192986476
 31
0.0
  0
LINE
  5
67
330
1F
100
AcDbEntity
  8
1
  6
Continuous
 62
     7
100
AcDbLine
 10
773.1810272123015
 20
-24.63289192986494
 30
0.0
 11
773.1810272123015
 21
-24.83289192986476
 31
0.0
  0
LINE
  5
68
330
1F
100
AcDbEntity
  8
1
  6
Continuous
 62
     7
100
AcDbLine
 10
773.1810272123015
 20
-24.63289192986494
 30
0.0
 11
770.1810272123015
 21
-24.63289192986494
 31
0.0
  0
LINE
  5
69
330
1F
100
AcDbEntity
  8
1
  6
Continuous
 62
     7
100
AcDbLine
 10
769.6810272123015
 20
-60.33289192986476
 30
0.0
 11
769.6810272123015
 21
-63.3328919298648
 31
0.0
  0
LINE
  5
6A
330
1F
100
AcDbEntity
  8
1
  6
Continuous
 62
     7
100
AcDbLine
 10
768.1810272123015
 20
-60.33289192986476
 30
0.0
 11
768.6810272123015
 21
-60.33289192986476
 31
0.0
  0
LINE
  5
6B
330
1F
100
AcDbEntity
  8
1
  6
Continuous
 62
     7
100
AcDbLine
 10
768.1810272123015
 20
-63.3328919298648
 30
0.0
 11
758.1810272123015
 21
-63.3328919298648
 31
0.0
  0
LINE
  5
6C
330
1F
100
AcDbEntity
  8
1
  6
Continuous
 62
     7
100
AcDbLine
 10
768.1810272123015
 20
-60.33289192986476
 30
0.0
 11
768.1810272123015
 21
-63.3328919298648
 31
0.0
  0
LINE
  5
6D
330
1F
100
AcDbEntity
  8
1
  6
Continuous
 62
     7
100
AcDbLine
 10
770.1810272123015
 20
-23.33289192986476
 30
0.0
 11
773.1810272123015
 21
-23.33289192986476
 31
0.0
  0
LINE
  5
6E
330
1F
100
AcDbEntity
  8
1
  6
Continuous
 62
     7
100
AcDbLine
 10
758.1810272123015
 20
-60.33289192986476
 30
0.0
 11
768.1810272123015
 21
-60.33289192986476
 31
0.0
  0
LINE
  5
6F
330
1F
100
AcDbEntity
  8
1
  6
Continuous
 62
     7
100
AcDbLine
 10
758.1810272123015
 20
-63.3328919298648
 30
0.0
 11
758.1810272123015
 21
-60.33289192986476
 31
0.0
  0
LINE
  5
70
330
1F
100
AcDbEntity
  8
1
  6
Continuous
 62
     7
100
AcDbLine
 10
769.6810272123015
 20
-63.3328919298648
 30
0.0
 11
768.6810272123015
 21
-63.3328919298648
 31
0.0
  0
LINE
  5
71
330
1F
100
AcDbEntity
  8
1
  6
Continuous
 62
     7
100
AcDbLine
 10
773.1810272123015
 20
-23.33289192986476
 30
0.0
 11
773.1810272123015
 21
-24.63289192986494
 31
0.0
  0
LINE
  5
72
330
1F
100
AcDbEntity
  8
1
  6
Continuous
 62
     7
100
AcDbLine
 10
770.1810272123015
 20
-24.83289192986476
 30
0.0
 11
770.1810272123015
 21
-24.63289192986494
 31
0.0
  0
LINE
  5
73
330
1F
100
AcDbEntity
  8
1
  6
Continuous
 62
     7
100
AcDbLine
 10
768.6810272123015
 20
-60.33289192986476
 30
0.0
 11
769.6810272123015
 21
-60.33289192986476
 31
0.0
  0
LINE
  5
74
330
1F
100
AcDbEntity
  8
1
  6
Continuous
 62
     7
100
AcDbLine
 10
768.6810272123015
 20
-63.3328919298648
 30
0.0
 11
768.1810272123015
 21
-63.3328919298648
 31
0.0
  0
LINE
  5
75
330
1F
100
AcDbEntity
  8
1
  6
Continuous
 62
     7
100
AcDbLine
 10
744.6810272123015
 20
-27.83289192986476
 30
0.0
 11
744.6810272123015
 21
-63.3328919298648
 31
0.0
  0
LINE
  5
76
330
1F
100
AcDbEntity
  8
1
  6
Continuous
 62
     7
100
AcDbLine
 10
768.1810272123015
 20
-63.3328919298648
 30
0.0
 11
779.1810272123015
 21
-63.3328919298648
 31
0.0
  0
LINE
  5
77
330
1F
100
AcDbEntity
  8
1
  6
Continuous
 62
     7
100
AcDbLine
 10
768.1810272123015
 20
-60.33289192986476
 30
0.0
 11
768.1810272123015
 21
-63.3328919298648
 31
0.0
  0
LINE
  5
78
330
1F
100
AcDbEntity
  8
1
  6
Continuous
 62
     7
100
AcDbLine
 10
757.9810272123016
 20
-60.33289192986476
 30
0.0
 11
768.1810272123015
 21
-60.33289192986476
 31
0.0
  0
LINE
  5
79
330
1F
100
AcDbEntity
  8
1
  6
Continuous
 62
     7
100
AcDbLine
 10
757.9810272123016
 20
-63.3328919298648
 30
0.0
 11
757.9810272123016
 21
-60.33289192986476
 31
0.0
  0
LINE
  5
7A
330
1F
100
AcDbEntity
  8
1
  6
Continuous
 62
     7
100
AcDbLine
 10
779.1810272123015
 20
-27.33289192986476
 30
0.0
 11
747.6810272123015
 21
-27.33289192986476
 31
0.0
  0
LINE
  5
7B
330
1F
100
AcDbEntity
  8
1
  6
Continuous
 62
     7
100
AcDbLine
 10
747.1810272123015
 20
-63.3328919298648
 30
0.0
 11
757.9810272123016
 21
-63.3328919298648
 31
0.0
  0
LINE
  5
7C
330
1F
100
AcDbEntity
  8
1
  6
Continuous
 62
     7
100
AcDbLine
 10
747.1810272123015
 20
-27.83289192986476
 30
0.0
 11
747.1810272123015
 21
-63.3328919298648
 31
0.0
  0
LINE
  5
7D
330
1F
100
AcDbEntity
  8
1
  6
Continuous
 62
     7
100
AcDbLine
 10
781.1810272123015
 20
-27.33289192986476
 30
0.0
 11
781.1810272123015
 21
-24.83289192986476
 31
0.0
  0
LINE
  5
7E
330
1F
100
AcDbEntity
  8
1
  6
Continuous
 62
     7
100
AcDbLine
 10
781.6810272123015
 20
-27.33289192986476
 30
0.0
 11
779.1810272123015
 21
-27.33289192986476
 31
0.0
  0
LINE
  5
7F
330
1F
100
AcDbEntity
  8
1
  6
Continuous
 62
     7
100
AcDbLine
 10
781.1810272123015
 20
-24.83289192986476
 30
0.0
 11
747.6810272123015
 21
-24.83289192986476
 31
0.0
  0
LINE
  5
80
330
1F
100
AcDbEntity
  8
1
  6
Continuous
 62
     7
100
AcDbLine
 10
779.1810272123015
 20
-60.8328919298648
 30
0.0
 11
781.6810272123015
 21
-60.8328919298648
 31
0.0
  0
LINE
  5
81
330
1F
100
AcDbEntity
  8
1
  6
Continuous
 62
     7
100
AcDbLine
 10
779.1810272123015
 20
-63.3328919298648
 30
0.0
 11
779.1810272123015
 21
-60.8328919298648
 31
0.0
  0
LINE
  5
82
330
1F
100
AcDbEntity
  8
1
  6
Continuous
 62
     7
100
AcDbLine
 10
744.6810272123015
 20
-63.3328919298648
 30
0.0
 11
747.1810272123015
 21
-63.3328919298648
 31
0.0
  0
LINE
  5
83
330
1F
100
AcDbEntity
  8
1
  6
Continuous
 62
     7
100
AcDbLine
 10
793.596337271712
 20
-35.92713417740816
 30
0.0
 11
796.7594543370476
 21
-39.0902512427439
 31
0.0
  0
LINE
  5
84
330
1F
100
AcDbEntity
  8
1
  6
DASHED
 62
     2
100
AcDbLine
 10
784.9310272123025
 20
-39.78517878295004
 30
0.0
 11
776.2657171528933
 21
-35.92713417740811
 31
0.0
  0
LINE
  5
85
330
1F
100
AcDbEntity
  8
1
  6
Continuous
 62
     7
100
AcDbLine
 10
776.2657171528933
 20
-35.92713417740811
 30
0.0
 11
776.0961077007373
 21
-35.8516191840088
 31
0.0
  0
LINE
  5
86
330
1F
100
AcDbEntity
  8
1
  6
Continuous
 62
     7
100
AcDbLine
 10
787.9623584692306
 20
-51.03144340922191
 30
0.0
 11
790.9602234492194
 21
-44.88490932421571
 31
0.0
  0
LINE
  5
87
330
1F
100
AcDbEntity
  8
1
  6
Continuous
 62
     7
100
AcDbLine
 10
797.9310272123015
 20
-41.91867836749023
 30
0.0
 11
797.9310272123014
 21
-50.13778673235792
 31
0.0
  0
LINE
  5
88
330
1F
100
AcDbEntity
  8
1
  6
Continuous
 62
     7
100
AcDbLine
 10
790.9602234492194
 20
-44.88490932421571
 30
0.0
 11
797.9310272123014
 21
-50.13778673235792
 31
0.0
  0
LINE
  5
89
330
1F
100
AcDbEntity
  8
1
  6
Continuous
 62
     7
100
AcDbLine
 10
790.9602234492194
 20
-44.88490932421571
 30
0.0
 11
791.0202035769985
 21
-44.76193183781189
 31
0.0
  0
LINE
  5
8A
330
1F
100
AcDbEntity
  8
1
  6
Continuous
 62
     7
100
AcDbLine
 10
797.9310272123014
 20
-50.13778673235792
 30
0.0
 11
797.9310272123014
 21
-53.33289192986447
 31
0.0
  0
LINE
  5
8B
330
1F
100
AcDbEntity
  8
1
  6
Continuous
 62
     7
100
AcDbLine
 10
790.0360887705517
 20
-42.05809862894867
 30
0.0
 11
784.9310272123025
 21
-39.78517878295004
 31
0.0
  0
LINE
  5
8C
330
1F
100
AcDbEntity
  8
1
  6
Continuous
 62
     7
100
AcDbLine
 10
759.1413927580313
 20
-36.82963316532224
 30
0.0
 11
760.0523475558625
 21
-35.91867836749125
 31
0.0
  0
LINE
  5
8D
330
1F
100
AcDbEntity
  8
1
  6
DASHED
 62
     2
100
AcDbLine
 10
788.4665611182354
 20
-30.79735802393159
 30
0.0
 11
793.596337271712
 21
-35.92713417740816
 31
0.0
  0
LINE
  5
8E
330
1F
100
AcDbEntity
  8
1
  6
Continuous
 62
     7
100
AcDbLine
 10
752.1026000875564
 20
-37.50446480511826
 30
0.0
 11
757.0168136499296
 21
-32.59025124274538
 31
0.0
  0
LINE
  5
8F
330
1F
100
AcDbEntity
  8
1
  6
Continuous
 62
     7
100
AcDbLine
 10
764.5400339868393
 20
-35.33289192986452
 30
0.0
 11
767.9310272123018
 21
-30.83289192986452
 31
0.0
  0
LINE
  5
90
330
1F
100
AcDbEntity
  8
1
  6
Continuous
 62
     7
100
AcDbLine
 10
761.2594543370489
 20
-30.83289192986447
 30
0.0
 11
780.6009001933805
 21
-30.83289192986459
 31
0.0
  0
LINE
  5
91
330
1F
100
AcDbEntity
  8
1
  6
Continuous
 62
     7
100
AcDbLine
 10
761.4665611182354
 20
-35.33289192986459
 30
0.0
 11
773.6556878422828
 21
-35.33289192986459
 31
0.0
  0
LINE
  5
92
330
1F
100
AcDbEntity
  8
1
  6
DOT_CENTER
 62
     2
100
AcDbLine
 10
760.8310272123028
 20
-40.33289192986459
 30
0.0
 11
749.0310272123027
 21
-40.3328919298647
 31
0.0
  0
LINE
  5
93
330
1F
100
AcDbEntity
  8
1
  6
DOT_CENTER
 62
     2
100
AcDbLine
 10
754.9310272123028
 20
-46.23289192986422
 30
0.0
 11
754.9310272123028
 21
-34.43289192986461
 31
0.0
  0
LINE
  5
94
330
1F
100
AcDbEntity
  8
1
  6
DOT_CENTER
 62
     2
100
AcDbLine
 10
799.9560272123013
 20
-53.3328919298647
 30
0.0
 11
785.4060272123013
 21
-53.33289192986459
 31
0.0
  0
LINE
  5
95
330
1F
100
AcDbEntity
  8
1
  6
DOT_CENTER
 62
     2
100
AcDbLine
 10
792.6810272123015
 20
-60.60789192986481
 30
0.0
 11
792.6810272123016
 21
-46.05789192986461
 31
0.0
  0
LINE
  5
96
330
1F
100
AcDbEntity
  8
1
  6
Continuous
 62
     7
100
AcDbLine
 10
749.6810272123015
 20
-43.80344556364554
 30
0.0
 11
749.6810272123015
 21
-50.58289192986464
 31
0.0
  0
LINE
  5
97
330
1F
100
AcDbEntity
  8
1
  6
Continuous
 62
     7
100
AcDbLine
 10
749.6810272123015
 20
-34.54606379629084
 30
0.0
 11
749.6810272123015
 21
-43.80344556364554
 31
0.0
  0
LINE
  5
98
330
1F
100
AcDbEntity
  8
1
  6
DASHED
 62
     2
100
AcDbLine
 10
779.3541416766107
 20
-40.47488319094934
 30
0.0
 11
779.2508499073158
 21
-42.44580755958201
 31
0.0
  0
LINE
  5
99
330
1F
100
AcDbEntity
  8
1
  6
Continuous
 62
     7
100
AcDbLine
 10
749.6810272123015
 20
-33.58289192986464
 30
0.0
 11
749.6810272123015
 21
-34.54606379629084
 31
0.0
  0
LINE
  5
9A
330
1F
100
AcDbEntity
  8
1
  6
Continuous
 62
     7
100
AcDbLine
 10
772.1810272123015
 20
-58.58289192986464
 30
0.0
 11
772.1810272123015
 21
-56.58289192986425
 31
0.0
  0
LINE
  5
9B
330
1F
100
AcDbEntity
  8
1
  6
Continuous
 62
     7
100
AcDbLine
 10
783.1810272123015
 20
-58.58289192986464
 30
0.0
 11
772.1810272123015
 21
-58.58289192986464
 31
0.0
  0
LINE
  5
9C
330
1F
100
AcDbEntity
  8
1
  6
Continuous
 62
     7
100
AcDbLine
 10
783.1810272123015
 20
-29.08289192986464
 30
0.0
 11
779.1810272123015
 21
-29.08289192986464
 31
0.0
  0
LINE
  5
9D
330
1F
100
AcDbEntity
  8
1
  6
Continuous
 62
     7
100
AcDbLine
 10
779.1810272123015
 20
-29.08289192986464
 30
0.0
 11
779.1810272123015
 21
-29.58289192986464
 31
0.0
  0
LINE
  5
9E
330
1F
100
AcDbEntity
  8
1
  6
DASHED
 62
     2
100
AcDbLine
 10
777.1810272123015
 20
-31.58289192986464
 30
0.0
 11
758.3547168273933
 21
-31.58289192986464
 31
0.0
  0
LINE
  5
9F
330
1F
100
AcDbEntity
  8
1
  6
Continuous
 62
     7
100
AcDbLine
 10
768.1810272123017
 20
-52.58289192986464
 30
0.0
 11
751.6810272123015
 21
-52.58289192986464
 31
0.0
  0
LINE
  5
A0
330
1F
100
AcDbEntity
  8
1
  6
Continuous
 62
     7
100
AcDbLine
 10
758.3547168273933
 20
-31.58289192986464
 30
0.0
 11
751.6810272123015
 21
-31.58289192986464
 31
0.0
  0
LINE
  5
A1
330
1F
100
AcDbEntity
  8
1
  6
Continuous
 62
     7
100
AcDbLine
 10
779.2508499073158
 20
-42.44580755958201
 30
0.0
 11
779.1015606708731
 21
-45.2944158861514
 31
0.0
  0
LINE
  5
A2
330
1F
100
AcDbEntity
  8
1
  6
DASHED
 62
     2
100
AcDbLine
 10
779.1015606708731
 20
-45.2944158861514
 30
0.0
 11
779.0923964078858
 21
-45.46928044085618
 31
0.0
  0
LINE
  5
A3
330
1F
100
AcDbEntity
  8
1
  6
Continuous
 62
     7
100
AcDbLine
 10
821.6810272123012
 20
-52.83289192985296
 30
0.0
 11
821.6810272123013
 21
-44.33289192985295
 31
0.0
  0
LINE
  5
A4
330
1F
100
AcDbEntity
  8
1
  6
Continuous
 62
     7
100
AcDbLine
 10
820.6810272123012
 20
-30.39965832260285
 30
0.0
 11
820.6810272123015
 21
-36.33289192985295
 31
0.0
  0
LINE
  5
A5
330
1F
100
AcDbEntity
  8
1
  6
Continuous
 62
     7
100
AcDbLine
 10
820.6810272123013
 20
-52.83289192985295
 30
0.0
 11
820.6810272123013
 21
-57.26409431080721
 31
0.0
  0
LINE
  5
A6
330
1F
100
AcDbEntity
  8
1
  6
Continuous
 62
     7
100
AcDbLine
 10
820.6810272123013
 20
-52.83289192985295
 30
0.0
 11
821.6810272123012
 21
-52.83289192985296
 31
0.0
  0
LINE
  5
A7
330
1F
100
AcDbEntity
  8
1
  6
Continuous
 62
     7
100
AcDbLine
 10
812.6810272123017
 20
-27.83289192986462
 30
0.0
 11
823.1810272123015
 21
-27.83289192986457
 31
0.0
  0
LINE
  5
A8
330
1F
100
AcDbEntity
  8
1
  6
Continuous
 62
     7
100
AcDbLine
 10
820.3897868637416
 20
-28.91628744579816
 30
0.0
 11
812.6810272123017
 21
-27.83289192986462
 31
0.0
  0
LINE
  5
A9
330
1F
100
AcDbEntity
  8
1
  6
Continuous
 62
     7
100
AcDbLine
 10
821.6810272123015
 20
-57.26409431080691
 30
0.0
 11
821.6810272123012
 21
-52.83289192985296
 31
0.0
  0
LINE
  5
AA
330
1F
100
AcDbEntity
  8
1
  6
Continuous
 62
     7
100
AcDbLine
 10
812.6810272123015
 20
-59.83289192985276
 30
0.0
 11
801.1810272123017
 21
-59.83289192985298
 31
0.0
  0
LINE
  5
AB
330
1F
100
AcDbEntity
  8
1
  6
Continuous
 62
     7
100
AcDbLine
 10
812.6810272123015
 20
-59.83289192985276
 30
0.0
 11
820.3897868637416
 21
-58.74949641391935
 31
0.0
  0
LINE
  5
AC
330
1F
100
AcDbEntity
  8
1
  6
Continuous
 62
     7
100
AcDbLine
 10
801.1810272123017
 20
-59.83289192985298
 30
0.0
 11
801.1810272123017
 21
-58.83289192985299
 31
0.0
  0
LINE
  5
AD
330
1F
100
AcDbEntity
  8
1
  6
Continuous
 62
     7
100
AcDbLine
 10
812.6111004003584
 20
-58.83289192985299
 30
0.0
 11
801.1810272123017
 21
-58.83289192985299
 31
0.0
  0
LINE
  5
AE
330
1F
100
AcDbEntity
  8
1
  6
Continuous
 62
     7
100
AcDbLine
 10
820.2506137627813
 20
-57.75922834517799
 30
0.0
 11
812.6111004003584
 21
-58.83289192985299
 31
0.0
  0
LINE
  5
AF
330
1F
100
AcDbEntity
  8
1
  6
Continuous
 62
     7
100
AcDbLine
 10
812.6426532706804
 20
-28.83289192986466
 30
0.0
 11
820.2507671271759
 21
-29.90454586641418
 31
0.0
  0
LINE
  5
B0
330
1F
100
AcDbEntity
  8
1
  6
DASHED
 62
     2
100
AcDbLine
 10
788.6810272123018
 20
-28.83289192986499
 30
0.0
 11
790.6810272123017
 21
-28.83289192986499
 31
0.0
  0
LINE
  5
B1
330
1F
100
AcDbEntity
  8
1
  6
Continuous
 62
     7
100
AcDbLine
 10
788.6810272123017
 20
-27.83289192986499
 30
0.0
 11
794.6810272123017
 21
-27.8328919298643
 31
0.0
  0
LINE
  5
B2
330
1F
100
AcDbEntity
  8
1
  6
Continuous
 62
     7
100
AcDbLine
 10
788.6810272123017
 20
-27.83289192986499
 30
0.0
 11
788.6810272123017
 21
-28.33289192986464
 31
0.0
  0
LINE
  5
B3
330
1F
100
AcDbEntity
  8
1
  6
PHANTOM
 62
     2
100
AcDbLine
 10
841.6810272123015
 20
-63.8328919298646
 30
0.0
 11
841.6810272123015
 21
-23.83289192986464
 31
0.0
  0
LINE
  5
B4
330
1F
100
AcDbEntity
  8
1
  6
Continuous
 62
     7
100
AcDbLine
 10
804.1810272123017
 20
-63.8328919298646
 30
0.0
 11
841.6810272123015
 21
-63.8328919298646
 31
0.0
  0
LINE
  5
B5
330
1F
100
AcDbEntity
  8
1
  6
Continuous
 62
     7
100
AcDbLine
 10
786.6810272123017
 20
-23.83289192986459
 30
0.0
 11
841.6810272123015
 21
-23.83289192986464
 31
0.0
  0
LINE
  5
B6
330
1F
100
AcDbEntity
  8
1
  6
DOT_CENTER
 62
     2
100
AcDbLine
 10
841.6810272123015
 20
-23.83289192986464
 30
0.0
 11
841.6810272123015
 21
-21.08123692872945
 31
0.0
  0
LINE
  5
B7
330
1F
100
AcDbEntity
  8
1
  6
Continuous
 62
     7
100
AcDbLine
 10
786.6810272123017
 20
-23.83289192986459
 30
0.0
 11
786.6810272123017
 21
-27.83289192986499
 31
0.0
  0
LINE
  5
B8
330
1F
100
AcDbEntity
  8
1
  6
Continuous
 62
     7
100
AcDbLine
 10
786.6810272123017
 20
-27.83289192986499
 30
0.0
 11
788.6810272123017
 21
-27.83289192986499
 31
0.0
  0
LINE
  5
B9
330
1F
100
AcDbEntity
  8
1
  6
Continuous
 62
     7
100
AcDbLine
 10
823.1810272123015
 20
-27.83289192986457
 30
0.0
 11
823.1810272123015
 21
-59.83289192985299
 31
0.0
  0
LINE
  5
BA
330
1F
100
AcDbEntity
  8
1
  6
Continuous
 62
     7
100
AcDbLine
 10
823.1810272123015
 20
-59.83289192985299
 30
0.0
 11
812.6810272123015
 21
-59.83289192985276
 31
0.0
  0
LINE
  5
BB
330
1F
100
AcDbEntity
  8
1
  6
Continuous
 62
     7
100
AcDbLine
 10
786.6810272123016
 20
-63.8328919298646
 30
0.0
 11
803.1810272123017
 21
-63.8328919298646
 31
0.0
  0
LINE
  5
BC
330
1F
100
AcDbEntity
  8
1
  6
Continuous
 62
     7
100
AcDbLine
 10
803.1810272123017
 20
-63.8328919298646
 30
0.0
 11
804.1810272123017
 21
-63.8328919298646
 31
0.0
  0
LINE
  5
BD
330
1F
100
AcDbEntity
  8
1
  6
Continuous
 62
     7
100
AcDbLine
 10
786.6810272123017
 20
-27.83289192986499
 30
0.0
 11
786.6810272123017
 21
-29.6491434310655
 31
0.0
  0
LINE
  5
BE
330
1F
100
AcDbEntity
  8
1
  6
Continuous
 62
     7
100
AcDbLine
 10
794.6810272123017
 20
-28.83289192986499
 30
0.0
 11
794.6810272123017
 21
-27.8328919298643
 31
0.0
  0
LINE
  5
BF
330
1F
100
AcDbEntity
  8
1
  6
Continuous
 62
     7
100
AcDbLine
 10
794.6810272123017
 20
-28.83289192986499
 30
0.0
 11
812.6426532706804
 21
-28.83289192986466
 31
0.0
  0
LINE
  5
C0
330
1F
100
AcDbEntity
  8
1
  6
Continuous
 62
     7
100
AcDbLine
 10
794.6810272123017
 20
-27.8328919298643
 30
0.0
 11
812.6810272123017
 21
-27.83289192986462
 31
0.0
  0
LINE
  5
C1
330
1F
100
AcDbEntity
  8
1
  6
Continuous
 62
     7
100
AcDbLine
 10
801.1810272123017
 20
-59.83289192985298
 30
0.0
 11
786.6810272123016
 21
-59.83289192985299
 31
0.0
  0
LINE
  5
C2
330
1F
100
AcDbEntity
  8
1
  6
Continuous
 62
     7
100
AcDbLine
 10
786.6810272123016
 20
-59.83289192985299
 30
0.0
 11
786.6810272123016
 21
-63.8328919298646
 31
0.0
  0
LINE
  5
C3
330
1F
100
AcDbEntity
  8
1
  6
Continuous
 62
     7
100
AcDbLine
 10
786.6810272123017
 20
-40.56432898223967
 30
0.0
 11
786.6810272123016
 21
-59.83289192985299
 31
0.0
  0
LINE
  5
C4
330
1F
100
AcDbEntity
  8
1
  6
DASHED
 62
     2
100
AcDbLine
 10
788.6810272123017
 20
-28.33289192986464
 30
0.0
 11
788.6810272123018
 21
-28.83289192986499
 31
0.0
  0
LINE
  5
C5
330
1F
100
AcDbEntity
  8
1
  6
Continuous
 62
     7
100
AcDbLine
 10
790.6810272123017
 20
-28.83289192986499
 30
0.0
 11
794.6810272123017
 21
-28.83289192986499
 31
0.0
  0
LINE
  5
C6
330
1F
100
AcDbEntity
  8
1
  6
Continuous
 62
     7
100
AcDbLine
 10
820.6765494103904
 20
-30.33289192985293
 30
0.0
 11
821.6794486775815
 21
-30.33289192985296
 31
0.0
  0
LINE
  5
C7
330
1F
100
AcDbEntity
  8
1
  6
Continuous
 62
     7
100
AcDbLine
 10
820.6810272123015
 20
-36.33289192985295
 30
0.0
 11
821.6810272123014
 21
-36.33289192985295
 31
0.0
  0
LINE
  5
C8
330
1F
100
AcDbEntity
  8
1
  6
Continuous
 62
     7
100
AcDbLine
 10
821.6810272123014
 20
-36.33289192985295
 30
0.0
 11
821.6810272123015
 21
-30.40168954891058
 31
0.0
  0
LINE
  5
C9
330
1F
100
AcDbEntity
  8
1
  6
Continuous
 62
     7
100
AcDbLine
 10
820.6810272123015
 20
-36.33289192985295
 30
0.0
 11
820.6810272123014
 21
-44.33289192985295
 31
0.0
  0
LINE
  5
CA
330
1F
100
AcDbEntity
  8
1
  6
Continuous
 62
     7
100
AcDbLine
 10
820.6810272123014
 20
-44.33289192985295
 30
0.0
 11
821.6810272123013
 21
-44.33289192985295
 31
0.0
  0
LINE
  5
CB
330
1F
100
AcDbEntity
  8
1
  6
Continuous
 62
     7
100
AcDbLine
 10
821.6810272123013
 20
-44.33289192985295
 30
0.0
 11
821.6810272123014
 21
-36.33289192985295
 31
0.0
  0
LINE
  5
CC
330
1F
100
AcDbEntity
  8
1
  6
Continuous
 62
     7
100
AcDbLine
 10
820.6810272123014
 20
-44.33289192985295
 30
0.0
 11
820.6810272123013
 21
-52.83289192985295
 31
0.0
  0
LINE
  5
CD
330
1F
100
AcDbEntity
  8
1
  6
DOT_CENTER
 62
     2
100
AcDbLine
 10
841.6810272123015
 20
-63.8328919298646
 30
0.0
 11
841.6810272123015
 21
-66.8328919298646
 31
0.0
  0
LINE
  5
CE
330
1F
100
AcDbEntity
  8
1
  6
Continuous
 62
     7
100
AcDbLine
 10
819.6810272123015
 20
-44.43451004706164
 30
0.0
 11
819.6810272123015
 21
-34.97226308409961
 31
0.0
  0
LINE
  5
CF
330
1F
100
AcDbEntity
  8
1
  6
Continuous
 62
     7
100
AcDbLine
 10
819.6810272123015
 20
-45.83289192986464
 30
0.0
 11
819.6810272123015
 21
-44.43451004706164
 31
0.0
  0
LINE
  5
D0
330
1F
100
AcDbEntity
  8
1
  6
Continuous
 62
     7
100
AcDbLine
 10
797.6810272123015
 20
-56.83289192986464
 30
0.0
 11
797.6810272123015
 21
-59.33289192986464
 31
0.0
  0
LINE
  5
D1
330
1F
100
AcDbEntity
  8
1
  6
Continuous
 62
     7
100
AcDbLine
 10
797.6810272123015
 20
-59.33289192986464
 30
0.0
 11
786.6810272123015
 21
-59.33289192986464
 31
0.0
  0
LINE
  5
D2
330
1F
100
AcDbEntity
  8
1
  6
Continuous
 62
     7
100
AcDbLine
 10
817.6810272123015
 20
-47.83289192986464
 30
0.0
 11
816.6810272123015
 21
-47.83289192986464
 31
0.0
  0
LINE
  5
D3
330
1F
100
AcDbEntity
  8
1
  6
Continuous
 62
     7
100
AcDbLine
 10
790.6810272123018
 20
-28.33289192986464
 30
0.0
 11
786.6810272123015
 21
-28.33289192986464
 31
0.0
  0
LINE
  5
D4
330
1F
100
AcDbEntity
  8
1
  6
Continuous
 62
     7
100
AcDbLine
 10
790.6810272123015
 20
-29.83289192986464
 30
0.0
 11
790.6810272123018
 21
-28.33289192986464
 31
0.0
  0
LINE
  5
D5
330
1F
100
AcDbEntity
  8
1
  6
Continuous
 62
     7
100
AcDbLine
 10
815.2376378870156
 20
-31.83289192986464
 30
0.0
 11
792.6810272123016
 21
-31.83289192986464
 31
0.0
  0
LINE
  5
D6
330
1F
100
AcDbEntity
  8
1
  6
Continuous
 62
     7
100
AcDbLine
 10
812.6810272123015
 20
-52.83289192986464
 30
0.0
 11
801.6810272123015
 21
-52.83289192986464
 31
0.0
  0
LINE
  5
D7
330
1F
100
AcDbEntity
  8
1
  6
Continuous
 62
     7
100
AcDbLine
 10
814.6810272123015
 20
-49.83289192986464
 30
0.0
 11
814.6810272123015
 21
-50.83289192986464
 31
0.0
  0
LINE
  5
D8
330
1F
100
AcDbEntity
  8
1
  6
DASHED
 62
     2
100
AcDbLine
 10
790.7696580167193
 20
-45.46928044085618
 30
0.0
 11
790.7604937537319
 21
-45.29441588615111
 31
0.0
  0
LINE
  5
D9
330
1F
100
AcDbEntity
  8
1
  6
Continuous
 62
     7
100
AcDbLine
 10
790.7604937537319
 20
-45.29441588615111
 30
0.0
 11
790.6112045172893
 21
-42.44580755958219
 31
0.0
  0
LINE
  5
DA
330
1F
100
AcDbEntity
  8
1
  6
DASHED
 62
     2
100
AcDbLine
 10
790.6112045172893
 20
-42.44580755958219
 30
0.0
 11
790.5079127479944
 21
-40.47488319094934
 31
0.0
  0
LINE
  5
DB
330
1F
100
AcDbEntity
  8
1
  6
Continuous
 62
     7
100
AcDbLine
 10
816.082874410497
 20
-32.02027635579134
 30
0.0
 11
818.5262637357829
 21
-33.1596475100263
 31
0.0
  0
LINE
  5
DC
330
1F
100
AcDbEntity
  8
1
  6
Continuous
 62
     7
100
AcDbLine
 10
805.3220204377658
 20
-35.33289192986452
 30
0.0
 11
808.3954933063691
 21
-35.33289192986464
 31
0.0
  0
LINE
  5
DD
330
1F
100
AcDbEntity
  8
1
  6
Continuous
 62
     7
100
AcDbLine
 10
801.9310272123032
 20
-30.83289192986452
 30
0.0
 11
808.6026000875561
 21
-30.83289192986464
 31
0.0
  0
LINE
  5
DE
330
1F
100
AcDbEntity
  8
1
  6
DASHED
 62
     2
100
AcDbLine
 10
805.3220204377658
 20
-35.33289192986452
 30
0.0
 11
801.9310272123032
 21
-30.83289192986452
 31
0.0
  0
LINE
  5
DF
330
1F
100
AcDbEntity
  8
1
  6
Continuous
 62
     7
100
AcDbLine
 10
771.9310272123035
 20
-53.33289192986464
 30
0.0
 11
771.9310272123035
 21
-41.91867836749026
 31
0.0
  0
LINE
  5
E0
330
1F
100
AcDbEntity
  8
1
  6
Continuous
 62
     7
100
AcDbLine
 10
793.7659467238676
 20
-35.85161918400897
 30
0.0
 11
779.8259656540532
 21
-42.05809862894867
 31
0.0
  0
LINE
  5
E1
330
1F
100
AcDbEntity
  8
1
  6
Continuous
 62
     7
100
AcDbLine
 10
796.2063665823223
 20
-35.33289192986464
 30
0.0
 11
805.3220204377658
 21
-35.33289192986452
 31
0.0
  0
LINE
  5
E2
330
1F
100
AcDbEntity
  8
1
  6
Continuous
 62
     7
100
AcDbLine
 10
809.8097068687417
 20
-35.91867836749107
 30
0.0
 11
810.7206616665736
 21
-36.82963316532229
 31
0.0
  0
LINE
  5
E3
330
1F
100
AcDbEntity
  8
1
  6
Continuous
 62
     7
100
AcDbLine
 10
812.8452407746753
 20
-32.59025124274533
 30
0.0
 11
817.7594543370484
 21
-37.50446480511832
 31
0.0
  0
LINE
  5
E4
330
1F
100
AcDbEntity
  8
1
  6
Continuous
 62
     7
100
AcDbLine
 10
789.2611542312243
 20
-30.83289192986464
 30
0.0
 11
801.9310272123032
 21
-30.83289192986452
 31
0.0
  0
LINE
  5
E5
330
1F
100
AcDbEntity
  8
1
  6
Continuous
 62
     7
100
AcDbLine
 10
773.1026000875573
 20
-39.09025124274407
 30
0.0
 11
781.3954933063695
 21
-30.79735802393188
 31
0.0
  0
LINE
  5
E6
330
1F
100
AcDbEntity
  8
1
  6
Continuous
 62
     7
100
AcDbLine
 10
778.8418508476066
 20
-44.76193183781211
 30
0.0
 11
781.8996959553743
 21
-51.03144340922196
 31
0.0
  0
LINE
  5
E7
330
1F
100
AcDbEntity
  8
1
  6
DOT_CENTER
 62
     2
100
AcDbLine
 10
820.8310272123023
 20
-40.33289192986464
 30
0.0
 11
809.0310272123021
 21
-40.33289192986464
 31
0.0
  0
LINE
  5
E8
330
1F
100
AcDbEntity
  8
1
  6
DOT_CENTER
 62
     2
100
AcDbLine
 10
814.9310272123022
 20
-34.43289192986455
 30
0.0
 11
814.9310272123022
 21
-46.23289192986451
 31
0.0
  0
LINE
  5
E9
330
1F
100
AcDbEntity
  8
1
  6
DOT_CENTER
 62
     2
100
AcDbLine
 10
791.9310272123024
 20
-34.33289192986464
 30
0.0
 11
777.9310272123026
 21
-34.33289192986464
 31
0.0
  0
LINE
  5
EA
330
1F
100
AcDbEntity
  8
1
  6
DOT_CENTER
 62
     2
100
AcDbLine
 10
784.9310272123025
 20
-27.33289192986476
 30
0.0
 11
784.9310272123025
 21
-41.33289192986453
 31
0.0
  0
LINE
  5
EB
330
1F
100
AcDbEntity
  8
1
  6
DOT_CENTER
 62
     2
100
AcDbLine
 10
784.4560272123036
 20
-53.33289192986464
 30
0.0
 11
769.9060272123037
 21
-53.33289192986464
 31
0.0
  0
LINE
  5
EC
330
1F
100
AcDbEntity
  8
1
  6
DOT_CENTER
 62
     2
100
AcDbLine
 10
777.1810272123033
 20
-46.05789192986467
 30
0.0
 11
777.1810272123034
 21
-60.60789192986481
 31
0.0
  0
ARC
  5
ED
330
1F
100
AcDbEntity
  8
1
  6
Continuous
 62
     7
100
AcDbCircle
 10
785.1810272123015
 20
-21.83289192986465
 30
0.0
 40
2.0
100
AcDbArc
 50
180.0
 51
-90.0
  0
ARC
  5
EE
330
1F
100
AcDbEntity
  8
1
  6
Continuous
 62
     7
100
AcDbCircle
 10
792.9869479035439
 20
-22.23289192986464
 30
0.0
 40
1.600000000000012
100
AcDbArc
 50
-90.0
 51
70.81186354628234
  0
ARC
  5
EF
330
1F
100
AcDbEntity
  8
1
  6
Continuous
 62
     7
100
AcDbCircle
 10
786.1810272123015
 20
-10.33289192986465
 30
0.0
 40
2.999999999999998
100
AcDbArc
 50
90.0
 51
180.0
  0
ARC
  5
F0
330
1F
100
AcDbEntity
  8
1
  6
Continuous
 62
     7
100
AcDbCircle
 10
791.271351093778
 20
-10.33289192986465
 30
0.0
 40
3.000000000000065
100
AcDbArc
 50
-14.99999999999884
 51
90.0
  0
ARC
  5
F1
330
1F
100
AcDbEntity
  8
1
  6
Continuous
 62
     7
100
AcDbCircle
 10
785.1810272123015
 20
-21.83289192986465
 30
0.0
 40
1.0
100
AcDbArc
 50
180.0
 51
-90.0
  0
ARC
  5
F2
330
1F
100
AcDbEntity
  8
1
  6
Continuous
 62
     7
100
AcDbCircle
 10
786.1810272123015
 20
-10.33289192986465
 30
0.0
 40
1.999999999999998
100
AcDbArc
 50
90.0
 51
180.0
  0
ARC
  5
F3
330
1F
100
AcDbEntity
  8
1
  6
Continuous
 62
     7
100
AcDbCircle
 10
791.271351093778
 20
-10.33289192986465
 30
0.0
 40
2.000000000000066
100
AcDbArc
 50
-15.00000000000123
 51
90.0
  0
ARC
  5
F4
330
1F
100
AcDbEntity
  8
1
  6
Continuous
 62
     7
100
AcDbCircle
 10
792.9869479035439
 20
-22.23289192986464
 30
0.0
 40
0.6000000000000121
100
AcDbArc
 50
-90.0
 51
70.8118635462752
  0
ARC
  5
F5
330
1F
100
AcDbEntity
  8
1
  6
Continuous
 62
     7
100
AcDbCircle
 10
749.1810272123015
 20
-57.26409431081878
 30
0.0
 40
1.5
100
AcDbArc
 50
179.9999999999995
 51
-98.00000000000095
  0
ARC
  5
F6
330
1F
100
AcDbEntity
  8
1
  6
Continuous
 62
     7
100
AcDbCircle
 10
749.1810272123015
 20
-30.40168954891044
 30
0.0
 40
1.499999999999659
100
AcDbArc
 50
98.00000000000261
 51
-179.999999999987
  0
ARC
  5
F7
330
1F
100
AcDbEntity
  8
1
  6
Continuous
 62
     7
100
AcDbCircle
 10
754.9310272123023
 20
-40.3328919298647
 30
0.0
 40
3.999999999999952
100
AcDbArc
 50
134.9999999999943
 51
20.37568164783945
  0
ARC
  5
F8
330
1F
100
AcDbEntity
  8
1
  6
DASHED
 62
     2
100
AcDbCircle
 10
784.9310272123025
 20
-34.33289192986453
 30
0.0
 40
5.000000000000243
100
AcDbArc
 50
45.00000000000049
 51
89.99999999999739
  0
ARC
  5
F9
330
1F
100
AcDbEntity
  8
1
  6
Continuous
 62
     7
100
AcDbCircle
 10
792.6810272123014
 20
-53.3328919298647
 30
0.0
 40
5.25000000000021
100
AcDbArc
 50
153.9999999999995
 51
-45.00000000000006
  0
ARC
  5
FA
330
1F
100
AcDbEntity
  8
1
  6
Continuous
 62
     7
100
AcDbCircle
 10
784.9310272123025
 20
-34.33289192986453
 30
0.0
 40
4.99999999999994
100
AcDbArc
 50
89.99999999999739
 51
128.2132107017391
  0
ARC
  5
FB
330
1F
100
AcDbEntity
  8
1
  6
Continuous
 62
     7
100
AcDbCircle
 10
792.6810272123014
 20
-53.3328919298647
 30
0.0
 40
5.249999999999766
100
AcDbArc
 50
-45.00000000000006
 51
0.00000000000248
  0
ARC
  5
FC
330
1F
100
AcDbEntity
  8
1
  6
Continuous
 62
     7
100
AcDbCircle
 10
781.2745686327971
 20
92.07185808095144
 30
0.0
 40
139.5
100
AcDbArc
 50
-103.089746250876
 51
-93.84047722901197
  0
ARC
  5
FD
330
1F
100
AcDbEntity
  8
1
  6
Continuous
 62
     7
100
AcDbCircle
 10
781.2745686327971
 20
92.07185808095144
 30
0.0
 40
130.5
100
AcDbArc
 50
-99.65362553683211
 51
-93.2090249084504
  0
ARC
  5
FE
330
1F
100
AcDbEntity
  8
1
  6
DASHED
 62
     2
100
AcDbCircle
 10
781.2745686327971
 20
92.07185808095144
 30
0.0
 40
139.5
100
AcDbArc
 50
-93.84047722901197
 51
-91.7418230039667
  0
ARC
  5
FF
330
1F
100
AcDbEntity
  8
1
  6
DASHED
 62
     2
100
AcDbCircle
 10
781.2745686327971
 20
92.07185808095144
 30
0.0
 40
130.5
100
AcDbArc
 50
-93.2090249084504
 51
-91.69433655610698
  0
ARC
  5
100
330
1F
100
AcDbEntity
  8
1
  6
DOT_CENTER
 62
     2
100
AcDbCircle
 10
781.2745686327971
 20
92.07185808095144
 30
0.0
 40
135.0
100
AcDbArc
 50
-105.9199792784021
 51
-89.42511591406618
  0
ARC
  5
101
330
1F
100
AcDbEntity
  8
1
  6
Continuous
 62
     7
100
AcDbCircle
 10
781.2745686327971
 20
92.07185808095144
 30
0.0
 40
130.5
100
AcDbArc
 50
-104.0102871349166
 51
-102.0412395406185
  0
ARC
  5
102
330
1F
100
AcDbEntity
  8
1
  6
DASHED
 62
     2
100
AcDbCircle
 10
781.2745686327971
 20
92.07185808095144
 30
0.0
 40
130.5
100
AcDbArc
 50
-102.0412395406185
 51
-99.65362553683211
  0
ARC
  5
103
330
1F
100
AcDbEntity
  8
1
  6
Continuous
 62
     7
100
AcDbCircle
 10
788.5874857918079
 20
92.07185808095144
 30
0.0
 40
139.5
100
AcDbArc
 50
-86.15952277098809
 51
-77.12100366439547
  0
ARC
  5
104
330
1F
100
AcDbEntity
  8
1
  6
Continuous
 62
     7
100
AcDbCircle
 10
788.5874857918079
 20
92.07185808095144
 30
0.0
 40
130.5
100
AcDbArc
 50
-77.95876045938151
 51
-76.22588441544036
  0
ARC
  5
105
330
1F
100
AcDbEntity
  8
1
  6
DOT_CENTER
 62
     2
100
AcDbCircle
 10
788.5874857918079
 20
92.07185808095144
 30
0.0
 40
135.0
100
AcDbArc
 50
-90.57488408593383
 51
-74.08002072159793
  0
ARC
  5
106
330
1F
100
AcDbEntity
  8
1
  6
Continuous
 62
     7
100
AcDbCircle
 10
788.5874857918079
 20
92.07185808095144
 30
0.0
 40
130.5
100
AcDbArc
 50
-86.79097509154957
 51
-80.34637446316799
  0
ARC
  5
107
330
1F
100
AcDbEntity
  8
1
  6
Continuous
 62
     7
100
AcDbCircle
 10
788.5874857918079
 20
92.07185808095144
 30
0.0
 40
130.5
100
AcDbArc
 50
-80.34637446316799
 51
-77.95876045938151
  0
ARC
  5
108
330
1F
100
AcDbEntity
  8
1
  6
DASHED
 62
     2
100
AcDbCircle
 10
788.5874857918079
 20
92.07185808095144
 30
0.0
 40
130.5
100
AcDbArc
 50
-88.30566344389302
 51
-86.79097509154957
  0
ARC
  5
109
330
1F
100
AcDbEntity
  8
1
  6
DASHED
 62
     2
100
AcDbCircle
 10
788.5874857918079
 20
92.07185808095144
 30
0.0
 40
139.5
100
AcDbArc
 50
-88.25817699603331
 51
-86.15952277098809
  0
ARC
  5
10A
330
1F
100
AcDbEntity
  8
1
  6
Continuous
 62
     7
100
AcDbCircle
 10
814.9310272123024
 20
-40.33289192986464
 30
0.0
 40
4.000000000000186
100
AcDbArc
 50
159.624318352161
 51
45.00000000000338
  0
ARC
  5
10B
330
1F
100
AcDbEntity
  8
1
  6
Continuous
 62
     7
100
AcDbCircle
 10
784.9310272123025
 20
-34.33289192986453
 30
0.0
 40
4.99999999999994
100
AcDbArc
 50
89.99999999999739
 51
135.0000000000028
  0
ARC
  5
10C
330
1F
100
AcDbEntity
  8
1
  6
Continuous
 62
     7
100
AcDbCircle
 10
777.1810272123034
 20
-53.33289192986476
 30
0.0
 40
5.24999999999968
100
AcDbArc
 50
-134.9999999999991
 51
26.00000000000007
  0
ARC
  5
10D
330
1F
100
AcDbEntity
  8
1
  6
Continuous
 62
     7
100
AcDbCircle
 10
784.9310272123025
 20
-34.33289192986453
 30
0.0
 40
4.999999999999701
100
AcDbArc
 50
51.78678929826436
 51
89.99999999999739
  0
ARC
  5
10E
330
1F
100
AcDbEntity
  8
1
  6
Continuous
 62
     7
100
AcDbCircle
 10
777.1810272123034
 20
-53.33289192986476
 30
0.0
 40
5.249999999999886
100
AcDbArc
 50
179.9999999999987
 51
-134.9999999999991
  0
CIRCLE
  5
10F
330
1F
100
AcDbEntity
  8
1
  6
Continuous
 62
     7
100
AcDbCircle
 10
792.6810272123014
 20
-53.3328919298647
 30
0.0
 40
2.75
  0
CIRCLE
  5
110
330
1F
100
AcDbEntity
  8
1
  6
Continuous
 62
     7
100
AcDbCircle
 10
754.9310272123023
 20
-40.3328919298647
 30
0.0
 40
2.499999999999773
  0
CIRCLE
  5
111
330
1F
100
AcDbEntity
  8
1
  6
Continuous
 62
     7
100
AcDbCircle
 10
784.9310272123025
 20
-34.33289192986453
 30
0.0
 40
2.5
  0
CIRCLE
  5
112
330
1F
100
AcDbEntity
  8
1
  6
Continuous
 62
     7
100
AcDbCircle
 10
777.1810272123034
 20
-53.33289192986476
 30
0.0
 40
2.749999999999886
  0
CIRCLE
  5
113
330
1F
100
AcDbEntity
  8
1
  6
Continuous
 62
     7
100
AcDbCircle
 10
814.9310272123024
 20
-40.33289192986464
 30
0.0
 40
2.5
  0
SPLINE
  5
114
330
1F
100
AcDbEntity
  8
1
  6
Continuous
 62
     2
100
AcDbSpline
210
0.0
220
0.0
230
1.0
 70
     8
 71
     3
 72
    12
 73
     8
 74
     6
 42
0.0000000001
 43
0.0000000001
 44
0.00000001
 40
0.0
 40
0.0
 40
0.0
 40
0.0
 40
0.2775291599795102
 40
0.5641738536599716
 40
0.8992522958634783
 40
1.297504019331736
 40
1.680834346735605
 40
1.680834346735605
 40
1.680834346735605
 40
1.680834346735605
 10
796.6810272123015
 20
11.75981090783582
 30
0.0
 10
796.7689710862526
 20
11.82901061460689
 30
0.0
 10
796.9477473787198
 20
11.96968291457009
 30
0.0
 10
797.1488949623347
 20
11.60493493587508
 30
0.0
 10
797.518478605643
 20
11.76908714398304
 30
0.0
 10
797.837326421069
 20
12.03386933778118
 30
0.0
 10
798.0679277729882
 20
11.84999357705444
 30
0.0
 10
798.1810272123015
 20
11.75981090783582
 30
0.0
 11
796.6810272123015
 21
11.75981090783582
 31
0.0
 11
796.9321351518431
 21
11.87799397488901
 31
0.0
 11
797.1563864198934
 21
11.69945392561987
 31
0.0
 11
797.4838280938042
 21
11.77058417668097
 31
0.0
 11
797.8435163416847
 21
11.9415484992225
 31
0.0
 11
798.1810272123015
 21
11.75981090783582
 31
0.0
  0
ARC
  5
115
330
1F
100
AcDbEntity
  8
1
  6
Continuous
 62
     7
100
AcDbCircle
 10
783.1810272123015
 20
-7.33289192986465
 30
0.0
 40
1.499999999999879
100
AcDbArc
 50
90.0
 51
180.0
  0
ARC
  5
116
330
1F
100
AcDbEntity
  8
1
  6
Continuous
 62
     7
100
AcDbCircle
 10
783.6810272123015
 20
-7.83289192986465
 30
0.0
 40
0.5
100
AcDbArc
 50
90.0
 51
180.0
  0
ARC
  5
117
330
1F
100
AcDbEntity
  8
1
  6
Continuous
 62
     7
100
AcDbCircle
 10
796.1810272123015
 20
-18.83289192986477
 30
0.0
 40
1.999999999999883
100
AcDbArc
 50
-90.0
 51
0.00000000000336
  0
ARC
  5
118
330
1F
100
AcDbEntity
  8
1
  6
Continuous
 62
     7
100
AcDbCircle
 10
794.1701638601638
 20
-18.83289192986477
 30
0.0
 40
1.999999999999732
100
AcDbArc
 50
-109.1881364537258
 51
-90.0
  0
ARC
  5
119
330
1F
100
AcDbEntity
  8
1
  6
Continuous
 62
     7
100
AcDbCircle
 10
795.6810272123015
 20
-18.33289192986465
 30
0.0
 40
1.0
100
AcDbArc
 50
-90.0
 51
0.0
  0
ARC
  5
11A
330
1F
100
AcDbEntity
  8
1
  6
Continuous
 62
     7
100
AcDbCircle
 10
794.8217765465846
 20
-18.33289192986465
 30
0.0
 40
1.000000000000234
100
AcDbArc
 50
165.000000000006
 51
-90.0
  0
ARC
  5
11B
330
1F
100
AcDbEntity
  8
1
  6
Continuous
 62
     7
100
AcDbCircle
 10
795.1810272123015
 20
-7.33289192986465
 30
0.0
 40
1.50000000000005
100
AcDbArc
 50
-15.00000000000127
 51
90.0
  0
ARC
  5
11C
330
1F
100
AcDbEntity
  8
1
  6
Continuous
 62
     7
100
AcDbCircle
 10
794.529414525881
 20
-7.83289192986465
 30
0.0
 40
0.5000000000000318
100
AcDbArc
 50
-15.00000000000782
 51
90.0
  0
ARC
  5
11D
330
1F
100
AcDbEntity
  8
1
  6
Continuous
 62
     7
100
AcDbCircle
 10
794.1701638601638
 20
-18.83289192986477
 30
0.0
 40
1.999999999999838
100
AcDbArc
 50
164.999999999998
 51
-109.1881364537258
  0
ARC
  5
11E
330
1F
100
AcDbEntity
  8
1
  6
Continuous
 62
     7
100
AcDbCircle
 10
794.1701638601638
 20
-18.83289192986477
 30
0.0
 40
3.000000000000093
100
AcDbArc
 50
164.9999999999992
 51
-109.1881364537216
  0
ARC
  5
11F
330
1F
100
AcDbEntity
  8
1
  6
Continuous
 62
     7
100
AcDbCircle
 10
743.681027212301
 20
-62.3328919298647
 30
0.0
 40
1.0
100
AcDbArc
 50
180.0
 51
-90.0
  0
ARC
  5
120
330
1F
100
AcDbEntity
  8
1
  6
Continuous
 62
     7
100
AcDbCircle
 10
743.681027212301
 20
-62.3328919298647
 30
0.0
 40
2.5
100
AcDbArc
 50
180.0
 51
-90.0
  0
ARC
  5
121
330
1F
100
AcDbEntity
  8
1
  6
Continuous
 62
     7
100
AcDbCircle
 10
780.6810272123015
 20
-62.3328919298646
 30
0.0
 40
2.5
100
AcDbArc
 50
-90.0
 51
0.0
  0
ARC
  5
122
330
1F
100
AcDbEntity
  8
1
  6
Continuous
 62
     7
100
AcDbCircle
 10
780.6810272123015
 20
-62.3328919298646
 30
0.0
 40
1.0
100
AcDbArc
 50
-90.0
 51
0.0
  0
ARC
  5
123
330
1F
100
AcDbEntity
  8
1
  6
Continuous
 62
     7
100
AcDbCircle
 10
749.1810272123015
 20
-57.26409431081878
 30
0.0
 40
0.5
100
AcDbArc
 50
180.0
 51
-98.00000000000077
  0
ARC
  5
124
330
1F
100
AcDbEntity
  8
1
  6
Continuous
 62
     7
100
AcDbCircle
 10
749.1810272123015
 20
-30.40168954891044
 30
0.0
 40
0.4999999999999766
100
AcDbArc
 50
98.00000000000115
 51
180.0
  0
ARC
  5
125
330
1F
100
AcDbEntity
  8
1
  6
Continuous
 62
     7
100
AcDbCircle
 10
769.6810272123015
 20
-59.83289192986476
 30
0.0
 40
3.500000000000043
100
AcDbArc
 50
-90.0
 51
0.0
  0
ARC
  5
126
330
1F
100
AcDbEntity
  8
1
  6
Continuous
 62
     7
100
AcDbCircle
 10
769.6810272123015
 20
-59.83289192986476
 30
0.0
 40
0.5
100
AcDbArc
 50
-90.0
 51
0.00000000001384
  0
ARC
  5
127
330
1F
100
AcDbEntity
  8
1
  6
Continuous
 62
     7
100
AcDbCircle
 10
747.6810272123015
 20
-27.83289192986476
 30
0.0
 40
3.0
100
AcDbArc
 50
90.0
 51
180.0
  0
ARC
  5
128
330
1F
100
AcDbEntity
  8
1
  6
Continuous
 62
     7
100
AcDbCircle
 10
747.6810272123015
 20
-27.83289192986476
 30
0.0
 40
0.5
100
AcDbArc
 50
90.0
 51
180.0
  0
ARC
  5
129
330
1F
100
AcDbEntity
  8
1
  6
Continuous
 62
     7
100
AcDbCircle
 10
773.6556878422825
 20
-41.33289192986459
 30
0.0
 40
6.000000000000163
100
AcDbArc
 50
66.00000000000082
 51
89.99999999999784
  0
ARC
  5
12A
330
1F
100
AcDbEntity
  8
1
  6
Continuous
 62
     7
100
AcDbCircle
 10
760.5556063204044
 20
-38.24384672769568
 30
0.0
 40
2.000000000000252
100
AcDbArc
 50
134.9999999999932
 51
-159.6243183521747
  0
ARC
  5
12B
330
1F
100
AcDbEntity
  8
1
  6
Continuous
 62
     7
100
AcDbCircle
 10
780.6009001933805
 20
-28.83289192986459
 30
0.0
 40
2.0
100
AcDbArc
 50
-90.0
 51
-51.78678929826781
  0
ARC
  5
12C
330
1F
100
AcDbEntity
  8
1
  6
Continuous
 62
     7
100
AcDbCircle
 10
761.4665611182355
 20
-37.33289192986459
 30
0.0
 40
2.0
100
AcDbArc
 50
90.00000000000325
 51
134.9999999999931
  0
ARC
  5
12D
330
1F
100
AcDbEntity
  8
1
  6
Continuous
 62
     7
100
AcDbCircle
 10
761.2594543370487
 20
-36.8328919298647
 30
0.0
 40
6.000000000000231
100
AcDbArc
 50
89.99999999999892
 51
134.9999999999985
  0
ARC
  5
12E
330
1F
100
AcDbEntity
  8
1
  6
Continuous
 62
     7
100
AcDbCircle
 10
789.2226154844002
 20
-43.88518954423356
 30
0.0
 40
2.000000000000037
100
AcDbArc
 50
-26.00000000000511
 51
65.99999999999848
  0
ARC
  5
12F
330
1F
100
AcDbEntity
  8
1
  6
Continuous
 62
     7
100
AcDbCircle
 10
793.9310272123014
 20
-41.91867836749023
 30
0.0
 40
4.000000000000114
100
AcDbArc
 50
0.0
 51
45.00000000000115
  0
ARC
  5
130
330
1F
100
AcDbEntity
  8
1
  6
DASHED
 62
     2
100
AcDbCircle
 10
777.0951373383766
 20
-45.3646085283703
 30
0.0
 40
2.000000000000029
100
AcDbArc
 50
-91.74182300396697
 51
-2.9999999999999
  0
ARC
  5
131
330
1F
100
AcDbEntity
  8
1
  6
DASHED
 62
     2
100
AcDbCircle
 10
777.3568826071015
 20
-40.37021127846344
 30
0.0
 40
1.999999999999994
100
AcDbArc
 50
-3.00000000000051
 51
88.30566344389297
  0
ARC
  5
132
330
1F
100
AcDbEntity
  8
1
  6
Continuous
 62
     7
100
AcDbCircle
 10
768.1810272123015
 20
-56.58289192986464
 30
0.0
 40
4.0
100
AcDbArc
 50
0.0000000000055
 51
89.99999999999675
  0
ARC
  5
133
330
1F
100
AcDbEntity
  8
1
  6
Continuous
 62
     7
100
AcDbCircle
 10
751.6810272123015
 20
-50.58289192986464
 30
0.0
 40
2.0
100
AcDbArc
 50
180.0
 51
-90.0
  0
ARC
  5
134
330
1F
100
AcDbEntity
  8
1
  6
Continuous
 62
     7
100
AcDbCircle
 10
751.6810272123015
 20
-33.58289192986464
 30
0.0
 40
1.999999999999996
100
AcDbArc
 50
90.0
 51
180.0
  0
ARC
  5
135
330
1F
100
AcDbEntity
  8
1
  6
Continuous
 62
     7
100
AcDbCircle
 10
777.1810272123015
 20
-29.58289192986464
 30
0.0
 40
2.00000000000002
100
AcDbArc
 50
-38.68218745348897
 51
0.0
  0
ARC
  5
136
330
1F
100
AcDbEntity
  8
1
  6
DASHED
 62
     2
100
AcDbCircle
 10
777.1810272123015
 20
-29.58289192986464
 30
0.0
 40
2.0
100
AcDbArc
 50
-90.0
 51
-38.68218745348897
  0
ARC
  5
137
330
1F
100
AcDbEntity
  8
1
  6
Continuous
 62
     7
100
AcDbCircle
 10
820.1810272123015
 20
-30.4016895489105
 30
0.0
 40
1.499999999999939
100
AcDbArc
 50
2.62879768383425
 51
81.99999999999915
  0
ARC
  5
138
330
1F
100
AcDbEntity
  8
1
  6
Continuous
 62
     7
100
AcDbCircle
 10
820.1810272123013
 20
-57.26409431080721
 30
0.0
 40
1.499999999999824
100
AcDbArc
 50
-81.9999999999895
 51
0.0000000000114
  0
ARC
  5
139
330
1F
100
AcDbEntity
  8
1
  6
Continuous
 62
     7
100
AcDbCircle
 10
820.1810272123013
 20
-57.26409431080721
 30
0.0
 40
0.4999999999999942
100
AcDbArc
 50
-81.99999999999912
 51
0.0
  0
ARC
  5
13A
330
1F
100
AcDbEntity
  8
1
  6
Continuous
 62
     7
100
AcDbCircle
 10
820.1810272123012
 20
-30.39965832260293
 30
0.0
 40
0.5000000000000467
100
AcDbArc
 50
7.67378653924797
 51
81.98225263597027
  0
ARC
  5
13B
330
1F
100
AcDbEntity
  8
1
  6
Continuous
 62
     7
100
AcDbCircle
 10
820.1810272123015
 20
-30.4016895489105
 30
0.0
 40
1.5
100
AcDbArc
 50
-0.00000000000299
 51
2.62879768383425
  0
ARC
  5
13C
330
1F
100
AcDbEntity
  8
1
  6
Continuous
 62
     7
100
AcDbCircle
 10
820.1810272123012
 20
-30.39965832260293
 30
0.0
 40
0.5
100
AcDbArc
 50
0.00000000000936
 51
7.67378653924797
  0
ARC
  5
13D
330
1F
100
AcDbEntity
  8
1
  6
Continuous
 62
     7
100
AcDbCircle
 10
812.6810272123015
 20
-50.83289192986464
 30
0.0
 40
2.0
100
AcDbArc
 50
-90.0
 51
0.0
  0
ARC
  5
13E
330
1F
100
AcDbEntity
  8
1
  6
Continuous
 62
     7
100
AcDbCircle
 10
816.6810272123015
 20
-49.83289192986464
 30
0.0
 40
2.0
100
AcDbArc
 50
90.0
 51
180.0
  0
ARC
  5
13F
330
1F
100
AcDbEntity
  8
1
  6
Continuous
 62
     7
100
AcDbCircle
 10
801.6810272123015
 20
-56.83289192986464
 30
0.0
 40
4.0
100
AcDbArc
 50
90.0
 51
180.0
  0
ARC
  5
140
330
1F
100
AcDbEntity
  8
1
  6
Continuous
 62
     7
100
AcDbCircle
 10
817.6810272123015
 20
-45.83289192986464
 30
0.0
 40
2.0
100
AcDbArc
 50
-90.0
 51
0.0
  0
ARC
  5
141
330
1F
100
AcDbEntity
  8
1
  6
Continuous
 62
     7
100
AcDbCircle
 10
792.6810272123015
 20
-29.83289192986464
 30
0.0
 40
2.0
100
AcDbArc
 50
180.0
 51
-89.99999999999675
  0
ARC
  5
142
330
1F
100
AcDbEntity
  8
1
  6
DASHED
 62
     2
100
AcDbCircle
 10
792.7669170862284
 20
-45.3646085283703
 30
0.0
 40
1.999999999999993
100
AcDbArc
 50
-177.0000000000001
 51
-88.25817699603304
  0
ARC
  5
143
330
1F
100
AcDbEntity
  8
1
  6
DASHED
 62
     2
100
AcDbCircle
 10
792.5051718175035
 20
-40.37021127846344
 30
0.0
 40
1.999999999999975
100
AcDbArc
 50
91.69433655610703
 51
-176.9999999999995
  0
ARC
  5
144
330
1F
100
AcDbEntity
  8
1
  6
Continuous
 62
     7
100
AcDbCircle
 10
817.6810272123015
 20
-34.97226308409961
 30
0.0
 40
1.999999999999996
100
AcDbArc
 50
8.54138971020341
 51
65.00000000000031
  0
ARC
  5
145
330
1F
100
AcDbEntity
  8
1
  6
Continuous
 62
     7
100
AcDbCircle
 10
815.2376378870156
 20
-33.83289192986464
 30
0.0
 40
1.999999999999995
100
AcDbArc
 50
65.00000000000021
 51
90.0
  0
ARC
  5
146
330
1F
100
AcDbEntity
  8
1
  6
Continuous
 62
     7
100
AcDbCircle
 10
817.6810272123015
 20
-34.97226308409961
 30
0.0
 40
2.0
100
AcDbArc
 50
0.0
 51
8.54138971020341
  0
ARC
  5
147
330
1F
100
AcDbEntity
  8
1
  6
Continuous
 62
     7
100
AcDbCircle
 10
808.6026000875561
 20
-36.83289192986464
 30
0.0
 40
5.999999999999958
100
AcDbArc
 50
45.00000000000068
 51
90.0
  0
ARC
  5
148
330
1F
100
AcDbEntity
  8
1
  6
Continuous
 62
     7
100
AcDbCircle
 10
808.3954933063691
 20
-37.33289192986464
 30
0.0
 40
2.000000000000021
100
AcDbArc
 50
45.00000000001857
 51
90.0
  0
ARC
  5
149
330
1F
100
AcDbEntity
  8
1
  6
Continuous
 62
     7
100
AcDbCircle
 10
775.9310272123035
 20
-41.91867836749026
 30
0.0
 40
4.000000000000017
100
AcDbArc
 50
135.0000000000002
 51
180.0
  0
ARC
  5
14A
330
1F
100
AcDbEntity
  8
1
  6
Continuous
 62
     7
100
AcDbCircle
 10
780.6394389402049
 20
-43.88518954423385
 30
0.0
 40
1.999999999999996
100
AcDbArc
 50
114.0000000000011
 51
-153.9999999999969
  0
ARC
  5
14B
330
1F
100
AcDbEntity
  8
1
  6
Continuous
 62
     7
100
AcDbCircle
 10
796.2063665823225
 20
-41.33289192986464
 30
0.0
 40
6.0
100
AcDbArc
 50
90.00000000000217
 51
114.0000000000006
  0
ARC
  5
14C
330
1F
100
AcDbEntity
  8
1
  6
Continuous
 62
     7
100
AcDbCircle
 10
809.3064481042005
 20
-38.24384672769574
 30
0.0
 40
1.999999999999916
100
AcDbArc
 50
-20.37568164782532
 51
45.00000000000691
  0
ARC
  5
14D
330
1F
100
AcDbEntity
  8
1
  6
Continuous
 62
     7
100
AcDbCircle
 10
789.2611542312245
 20
-28.83289192986464
 30
0.0
 40
2.000000000000084
100
AcDbArc
 50
-128.2132107017418
 51
-90.00000000000651
  0
DIMENSION
  5
15B
330
1F
100
AcDbEntity
  8
1
100
AcDbDimension
  2
*D1
 10
850.520944085132
 20
-64.83289192986457
 30
0.0
 11
846.770944085132
 21
-68.15493401290131
 31
0.0
 70
    32
  1
<>
 71
     5
 42
-1.0
 53
90.0
  3
ME10_DIM_10
100
AcDbAlignedDimension
 13
841.6810272123015
 23
-63.8328919298646
 33
0.0
 14
780.6810272123015
 24
-64.8328919298646
 34
0.0
 50
90.0
100
AcDbRotatedDimension
  0
DIMENSION
  5
166
330
1F
100
AcDbEntity
  8
1
100
AcDbDimension
  2
*D2
 10
747.6810272123015
 20
-74.2566692327123
 30
0.0
 11
764.7669890889839
 21
-70.5066692327123
 31
0.0
 70
    32
  1
<>
 71
     5
 42
-1.0
 53
0.00013888888889
  3
ME10_DIM_11
100
AcDbAlignedDimension
 13
783.1810272123015
 23
-62.3328919298646
 33
0.0
 14
747.6810272123015
 24
-57.26409431081876
 34
0.0
100
AcDbRotatedDimension
  0
DIMENSION
  5
171
330
1F
100
AcDbEntity
  8
1
100
AcDbDimension
  2
*D3
 10
786.6810272123016
 20
-74.2566692327123
 30
0.0
 11
804.1810272123015
 21
-70.5066692327123
 31
0.0
 70
    32
  1
<>
 71
     5
 42
-1.0
 53
0.00013888888889
  3
ME10_DIM_12
100
AcDbAlignedDimension
 13
821.6810272123015
 23
-57.26409431080691
 33
0.0
 14
786.6810272123016
 24
-63.8328919298646
 34
0.0
100
AcDbRotatedDimension
  0
DIMENSION
  5
17E
330
1F
100
AcDbEntity
  8
1
100
AcDbDimension
  2
*D4
 10
783.1810272123015
 20
-74.2566692327123
 30
0.0
 11
782.9925511752119
 21
-77.7145313174713
 31
0.0
 70
    32
  1
<>
 71
     5
 42
-1.0
 53
0.00013888888889
  3
ME10_DIM_13
100
AcDbAlignedDimension
 13
786.6810272123016
 23
-63.8328919298646
 33
0.0
 14
783.1810272123015
 24
-62.3328919298646
 34
0.0
100
AcDbRotatedDimension
  0
DIMENSION
  5
18B
330
1F
100
AcDbEntity
  8
1
100
AcDbDimension
  2
*D5
 10
734.1352548739069
 20
-64.83289192986466
 30
0.0
 11
730.3852548739069
 21
-68.3893105028543
 31
0.0
 70
    32
  1
<>
 71
     5
 42
-1.0
 53
90.0
  3
ME10_DIM_14
100
AcDbAlignedDimension
 13
756.6810272123015
 23
-59.83289192986464
 33
0.0
 14
743.681027212301
 24
-64.8328919298647
 34
0.0
 50
90.0
100
AcDbRotatedDimension
  0
DIMENSION
  5
196
330
1F
100
AcDbEntity
  8
1
100
AcDbDimension
  2
*D6
 10
734.1352548739069
 20
-59.83289192986464
 30
0.0
 11
730.3852548739069
 21
-43.83289192986464
 31
0.0
 70
    32
  1
<>
 71
     5
 42
-1.0
 53
90.0
  3
ME10_DIM_15
100
AcDbAlignedDimension
 13
756.6810272123033
 23
-27.83289192986464
 33
0.0
 14
756.6810272123015
 24
-59.83289192986464
 34
0.0
 50
90.0
100
AcDbRotatedDimension
  0
DIMENSION
  5
1A3
330
1F
100
AcDbEntity
  8
1
100
AcDbDimension
  2
*D7
 10
860.261243512918
 20
-63.8328919298646
 30
0.0
 11
856.511243512918
 21
-67.58197522303131
 31
0.0
 70
    32
  1
<>
 71
     5
 42
-1.0
 53
90.0
  3
ME10_DIM_16
100
AcDbAlignedDimension
 13
823.1810272123015
 23
-59.83289192985299
 33
0.0
 14
841.6810272123015
 24
-63.8328919298646
 34
0.0
 50
90.0
100
AcDbRotatedDimension
  0
DIMENSION
  5
1AE
330
1F
100
AcDbEntity
  8
1
100
AcDbDimension
  2
*D8
 10
860.261243512918
 20
-59.83289192985299
 30
0.0
 11
856.511243512918
 21
-43.83289192985879
 31
0.0
 70
    32
  1
<>
 71
     5
 42
-1.0
 53
90.0
  3
ME10_DIM_17
100
AcDbAlignedDimension
 13
823.1810272123015
 23
-27.83289192986457
 33
0.0
 14
823.1810272123015
 24
-59.83289192985299
 34
0.0
 50
90.0
100
AcDbRotatedDimension
  0
DIMENSION
  5
1BA
330
1F
100
AcDbEntity
  8
1
100
AcDbDimension
  2
*D9
 10
741.181027212301
 20
-89.6404314563043
 30
0.0
 11
761.9940496590143
 21
-85.8904314563043
 31
0.0
 70
    32
  1
<>
 71
     5
 42
-1.0
 53
0.00013888888889
  3
ME10_DIM_18
100
AcDbAlignedDimension
 13
783.1810272123015
 23
-62.3328919298646
 33
0.0
 14
741.181027212301
 24
-62.3328919298647
 34
0.0
100
AcDbRotatedDimension
  0
DIMENSION
  5
1C5
330
1F
100
AcDbEntity
  8
1
100
AcDbDimension
  2
*D10
 10
786.6810272123016
 20
-89.6404314563043
 30
0.0
 11
804.9310272123015
 21
-85.8904314563043
 31
0.0
 70
    32
  1
<>
 71
     5
 42
-1.0
 53
0.00013888888889
  3
ME10_DIM_19
100
AcDbAlignedDimension
 13
823.1810272123015
 23
-59.83289192985299
 33
0.0
 14
786.6810272123016
 24
-63.8328919298646
 34
0.0
100
AcDbRotatedDimension
  0
ENDSEC
  0
SECTION
  2
OBJECTS
  0
DICTIONARY
  5
C
330
0
100
AcDbDictionary
281
     1
  3
ACAD_GROUP
350
D
  3
ACAD_LAYOUT
350
1A
  3
ACAD_MLINESTYLE
350
17
  3
ACAD_PLOTSETTINGS
350
19
  3
ACAD_PLOTSTYLENAME
350
E
  0
DICTIONARY
  5
D
102
{ACAD_REACTORS
330
C
102
}
330
C
100
AcDbDictionary
281
     1
  0
DICTIONARY
  5
1A
102
{ACAD_REACTORS
330
C
102
}
330
C
100
AcDbDictionary
281
     1
  3
Layout1
350
1E
  3
Layout2
350
26
  3
Model
350
22
  0
DICTIONARY
  5
17
102
{ACAD_REACTORS
330
C
102
}
330
C
100
AcDbDictionary
281
     1
  3
Standard
350
18
  0
DICTIONARY
  5
19
102
{ACAD_REACTORS
330
C
102
}
330
C
100
AcDbDictionary
281
     1
  0
ACDBDICTIONARYWDFLT
  5
E
102
{ACAD_REACTORS
330
C
102
}
330
C
100
AcDbDictionary
281
     1
  3
Normal
350
F
100
AcDbDictionaryWithDefault
340
F
  0
LAYOUT
  5
1E
102
{ACAD_REACTORS
330
1A
102
}
330
1A
100
AcDbPlotSettings
  1

  2

  4

  6

 40
0.0
 41
0.0
 42
0.0
 43
0.0
 44
0.0
 45
0.0
 46
0.0
 47
0.0
 48
0.0
 49
0.0
140
0.0
141
0.0
142
1.0
143
1.0
 70
   688
 72
     0
 73
     0
 74
     5
  7

 75
    16
 76
     0
 77
     2
 78
   300
147
1.0
148
0.0
149
0.0
100
AcDbLayout
  1
Layout1
 70
     1
 71
     1
 10
0.0
 20
0.0
 11
0.0
 21
0.0
 12
0.0
 22
0.0
 32
0.0
 14
0.0
 24
0.0
 34
0.0
 15
0.0
 25
0.0
 35
0.0
146
0.0
 13
0.0
 23
0.0
 33
0.0
 16
1.0
 26
0.0
 36
0.0
 17
0.0
 27
1.0
 37
0.0
 76
     0
330
1B
  0
LAYOUT
  5
26
102
{ACAD_REACTORS
330
1A
102
}
330
1A
100
AcDbPlotSettings
  1

  2

  4

  6

 40
0.0
 41
0.0
 42
0.0
 43
0.0
 44
0.0
 45
0.0
 46
0.0
 47
0.0
 48
0.0
 49
0.0
140
0.0
141
0.0
142
1.0
143
1.0
 70
   688
 72
     0
 73
     0
 74
     5
  7

 75
    16
 76
     0
 77
     2
 78
   300
147
1.0
148
0.0
149
0.0
100
AcDbLayout
  1
Layout2
 70
     1
 71
     2
 10
0.0
 20
0.0
 11
0.0
 21
0.0
 12
0.0
 22
0.0
 32
0.0
 14
0.0
 24
0.0
 34
0.0
 15
0.0
 25
0.0
 35
0.0
146
0.0
 13
0.0
 23
0.0
 33
0.0
 16
1.0
 26
0.0
 36
0.0
 17
0.0
 27
1.0
 37
0.0
 76
     0
330
23
  0
LAYOUT
  5
22
102
{ACAD_REACTORS
330
1A
102
}
330
1A
100
AcDbPlotSettings
  1

  2

  4

  6

 40
0.0
 41
0.0
 42
0.0
 43
0.0
 44
0.0
 45
0.0
 46
0.0
 47
0.0
 48
0.0
 49
0.0
140
0.0
141
0.0
142
1.0
143
1.0
 70
  1712
 72
     0
 73
     0
 74
     0
  7

 75
     0
 76
     0
 77
     2
 78
   300
147
1.0
148
0.0
149
0.0
100
AcDbLayout
  1
Model
 70
     1
 71
     0
 10
0.0
 20
0.0
 11
0.0
 21
0.0
 12
0.0
 22
0.0
 32
0.0
 14
728.6352548739069
 24
-91.6404314563043
 34
0.0
 15
862.261243512918
 25
11.9559511827811
 35
0.0
146
0.0
 13
0.0
 23
0.0
 33
0.0
 16
1.0
 26
0.0
 36
0.0
 17
0.0
 27
1.0
 37
0.0
 76
     0
330
1F
  0
MLINESTYLE
  5
18
102
{ACAD_REACTORS
330
17
102
}
330
17
100
AcDbMlineStyle
  2
Standard
 70
     0
  3

 62
   256
 51
90.0
 52
90.0
 71
     2
 49
0.5
 62
   256
  6
BYLAYER
 49
-0.5
 62
   256
  6
BYLAYER
  0
ACDBPLACEHOLDER
  5
F
102
{ACAD_REACTORS
330
E
102
}
330
E
  0
ENDSEC
  0
EOF
