  0
SECTION
  2
HEADER
  9
$ACADVER
  1
AC1018
  9
$ACADMAINTVER
 70
     0
  9
$DWGCODEPAGE
  3
ANSI_1252
  9
$INSBASE
 10
0.0
 20
0.0
 30
0.0
  9
$EXTMIN
 10
-199.67495248489
 20
-131.475422560464
 30
0.0
  9
$EXTMAX
 10
196.080781006064
 20
109.4193999621323
 30
0.0
  9
$LIMMIN
 10
0.0
 20
0.0
  9
$LIMMAX
 10
12.0
 20
9.0
  9
$ORTHOMODE
 70
     0
  9
$REGENMODE
 70
     1
  9
$FILLMODE
 70
     1
  9
$QTEXTMODE
 70
     0
  9
$MIRRTEXT
 70
     1
  9
$LTSCALE
 40
1.0
  9
$ATTMODE
 70
     1
  9
$TEXTSIZE
 40
0.2
  9
$TRACEWID
 40
0.05
  9
$TEXTSTYLE
  7
Standard
  9
$CLAYER
  8
0
  9
$CELTYPE
  6
ByLayer
  9
$CECOLOR
 62
   256
  9
$CELTSCALE
 40
1.0
  9
$DISPSILH
 70
     0
  9
$DIMSCALE
 40
1.0
  9
$DIMASZ
 40
0.18
  9
$DIMEXO
 40
0.0625
  9
$DIMDLI
 40
0.38
  9
$DIMRND
 40
0.0
  9
$DIMDLE
 40
0.0
  9
$DIMEXE
 40
0.18
  9
$DIMTP
 40
0.0
  9
$DIMTM
 40
0.0
  9
$DIMTXT
 40
0.18
  9
$DIMCEN
 40
0.09
  9
$DIMTSZ
 40
0.0
  9
$DIMTOL
 70
     0
  9
$DIMLIM
 70
     0
  9
$DIMTIH
 70
     1
  9
$DIMTOH
 70
     1
  9
$DIMSE1
 70
     0
  9
$DIMSE2
 70
     0
  9
$DIMTAD
 70
     0
  9
$DIMZIN
 70
     0
  9
$DIMBLK
  1

  9
$DIMASO
 70
     1
  9
$DIMSHO
 70
     1
  9
$DIMPOST
  1

  9
$DIMAPOST
  1

  9
$DIMALT
 70
     0
  9
$DIMALTD
 70
     2
  9
$DIMALTF
 40
25.4
  9
$DIMLFAC
 40
1.0
  9
$DIMTOFL
 70
     0
  9
$DIMTVP
 40
0.0
  9
$DIMTIX
 70
     0
  9
$DIMSOXD
 70
     0
  9
$DIMSAH
 70
     0
  9
$DIMBLK1
  1

  9
$DIMBLK2
  1

  9
$DIMSTYLE
  2
Standard
  9
$DIMCLRD
 70
     0
  9
$DIMCLRE
 70
     0
  9
$DIMCLRT
 70
     0
  9
$DIMTFAC
 40
1.0
  9
$DIMGAP
 40
0.09
  9
$DIMJUST
 70
     0
  9
$DIMSD1
 70
     0
  9
$DIMSD2
 70
     0
  9
$DIMTOLJ
 70
     1
  9
$DIMTZIN
 70
     0
  9
$DIMALTZ
 70
     0
  9
$DIMALTTZ
 70
     0
  9
$DIMUPT
 70
     0
  9
$DIMDEC
 70
     4
  9
$DIMTDEC
 70
     4
  9
$DIMALTU
 70
     2
  9
$DIMALTTD
 70
     2
  9
$DIMTXSTY
  7
Standard
  9
$DIMAUNIT
 70
     0
  9
$DIMADEC
 70
     0
  9
$DIMALTRND
 40
0.0
  9
$DIMAZIN
 70
     0
  9
$DIMDSEP
 70
    46
  9
$DIMATFIT
 70
     3
  9
$DIMFRAC
 70
     0
  9
$DIMLDRBLK
  1

  9
$DIMLUNIT
 70
     2
  9
$DIMLWD
 70
    -2
  9
$DIMLWE
 70
    -2
  9
$DIMTMOVE
 70
     0
  9
$LUNITS
 70
     2
  9
$LUPREC
 70
     4
  9
$SKETCHINC
 40
0.1
  9
$FILLETRAD
 40
0.5
  9
$AUNITS
 70
     0
  9
$AUPREC
 70
     0
  9
$MENU
  1
.
  9
$ELEVATION
 40
0.0
  9
$PELEVATION
 40
0.0
  9
$THICKNESS
 40
0.0
  9
$LIMCHECK
 70
     0
  9
$CHAMFERA
 40
0.5
  9
$CHAMFERB
 40
0.5
  9
$CHAMFERC
 40
1.0
  9
$CHAMFERD
 40
0.0
  9
$SKPOLY
 70
     0
  9
$TDCREATE
 40
2456434.34352184
  9
$TDUCREATE
 40
2456434.260188507
  9
$TDUPDATE
 40
2456434.343521852
  9
$TDUUPDATE
 40
2456434.260188519
  9
$TDINDWG
 40
0.0000000116
  9
$TDUSRTIMER
 40
0.0000000116
  9
$USRTIMER
 70
     1
  9
$ANGBASE
 50
0.0
  9
$ANGDIR
 70
     0
  9
$PDMODE
 70
     0
  9
$PDSIZE
 40
0.0
  9
$PLINEWID
 40
0.0
  9
$SPLFRAME
 70
     0
  9
$SPLINETYPE
 70
     6
  9
$SPLINESEGS
 70
     8
  9
$HANDSEED
  5
1F8
  9
$SURFTAB1
 70
     6
  9
$SURFTAB2
 70
     6
  9
$SURFTYPE
 70
     6
  9
$SURFU
 70
     6
  9
$SURFV
 70
     6
  9
$UCSBASE
  2

  9
$UCSNAME
  2

  9
$UCSORG
 10
0.0
 20
0.0
 30
0.0
  9
$UCSXDIR
 10
1.0
 20
0.0
 30
0.0
  9
$UCSYDIR
 10
0.0
 20
1.0
 30
0.0
  9
$UCSORTHOREF
  2

  9
$UCSORTHOVIEW
 70
     0
  9
$UCSORGTOP
 10
0.0
 20
0.0
 30
0.0
  9
$UCSORGBOTTOM
 10
0.0
 20
0.0
 30
0.0
  9
$UCSORGLEFT
 10
0.0
 20
0.0
 30
0.0
  9
$UCSORGRIGHT
 10
0.0
 20
0.0
 30
0.0
  9
$UCSORGFRONT
 10
0.0
 20
0.0
 30
0.0
  9
$UCSORGBACK
 10
0.0
 20
0.0
 30
0.0
  9
$PUCSBASE
  2

  9
$PUCSNAME
  2

  9
$PUCSORG
 10
0.0
 20
0.0
 30
0.0
  9
$PUCSXDIR
 10
1.0
 20
0.0
 30
0.0
  9
$PUCSYDIR
 10
0.0
 20
1.0
 30
0.0
  9
$PUCSORTHOREF
  2

  9
$PUCSORTHOVIEW
 70
     0
  9
$PUCSORGTOP
 10
0.0
 20
0.0
 30
0.0
  9
$PUCSORGBOTTOM
 10
0.0
 20
0.0
 30
0.0
  9
$PUCSORGLEFT
 10
0.0
 20
0.0
 30
0.0
  9
$PUCSORGRIGHT
 10
0.0
 20
0.0
 30
0.0
  9
$PUCSORGFRONT
 10
0.0
 20
0.0
 30
0.0
  9
$PUCSORGBACK
 10
0.0
 20
0.0
 30
0.0
  9
$USERI1
 70
     0
  9
$USERI2
 70
     0
  9
$USERI3
 70
     0
  9
$USERI4
 70
     0
  9
$USERI5
 70
     0
  9
$USERR1
 40
16.5
  9
$USERR2
 40
0.0
  9
$USERR3
 40
0.0
  9
$USERR4
 40
0.0
  9
$USERR5
 40
0.0
  9
$WORLDVIEW
 70
     1
  9
$SHADEDGE
 70
     3
  9
$SHADEDIF
 70
    70
  9
$TILEMODE
 70
     1
  9
$MAXACTVP
 70
    64
  9
$PINSBASE
 10
0.0
 20
0.0
 30
0.0
  9
$PLIMCHECK
 70
     0
  9
$PEXTMIN
 10
1.00000000000000E+20
 20
1.00000000000000E+20
 30
1.00000000000000E+20
  9
$PEXTMAX
 10
-1.00000000000000E+20
 20
-1.00000000000000E+20
 30
-1.00000000000000E+20
  9
$PLIMMIN
 10
0.0
 20
0.0
  9
$PLIMMAX
 10
12.0
 20
9.0
  9
$UNITMODE
 70
     0
  9
$VISRETAIN
 70
     1
  9
$PLINEGEN
 70
     0
  9
$PSLTSCALE
 70
     1
  9
$TREEDEPTH
 70
  3020
  9
$CMLSTYLE
  2
Standard
  9
$CMLJUST
 70
     0
  9
$CMLSCALE
 40
1.0
  9
$PROXYGRAPHICS
 70
     1
  9
$MEASUREMENT
 70
     1
  9
$CELWEIGHT
370
    -1
  9
$ENDCAPS
280
     0
  9
$JOINSTYLE
280
     0
  9
$LWDISPLAY
290
     0
  9
$INSUNITS
 70
     1
  9
$HYPERLINKBASE
  1

  9
$STYLESHEET
  1

  9
$XEDIT
290
     1
  9
$CEPSNTYPE
380
     0
  9
$PSTYLEMODE
290
     1
  9
$FINGERPRINTGUID
  2
{275D0124-9965-46D5-A818-BEBE13EF22BB}
  9
$VERSIONGUID
  2
{FAEB1C32-E019-11D5-929B-00C0DF256EC4}
  9
$EXTNAMES
290
     1
  9
$PSVPSCALE
 40
0.0
  9
$OLESTARTUP
290
     0
  9
$SORTENTS
280
   127
  9
$INDEXCTL
280
     0
  9
$HIDETEXT
280
     1
  9
$XCLIPFRAME
290
     0
  9
$HALOGAP
280
     0
  9
$OBSCOLOR
 70
   257
  9
$OBSLTYPE
280
     0
  9
$INTERSECTIONDISPLAY
280
     0
  9
$INTERSECTIONCOLOR
 70
   257
  9
$DIMASSOC
280
     2
  9
$PROJECTNAME
  1

  0
ENDSEC
  0
SECTION
  2
CLASSES
  0
CLASS
  1
ACDBDICTIONARYWDFLT
  2
AcDbDictionaryWithDefault
  3
ObjectDBX Classes
 90
        0
 91
        4
280
     0
281
     0
  0
CLASS
  1
VISUALSTYLE
  2
AcDbVisualStyle
  3
ObjectDBX Classes
 90
     4095
 91
        4
280
     0
281
     0
  0
CLASS
  1

  2
exOdDbCircle
  3

 90
        0
 91
        4
280
     0
281
     1
  0
CLASS
  1

  2
exOdDbSpline
  3

 90
        0
 91
        4
280
     0
281
     1
  0
CLASS
  1
SCALE
  2
AcDbScale
  3
ObjectDBX Classes
 90
     1153
 91
        4
280
     0
281
     0
  0
CLASS
  1
DICTIONARYVAR
  2
AcDbDictionaryVar
  3
ObjectDBX Classes
 90
        0
 91
        4
280
     0
281
     0
  0
ENDSEC
  0
SECTION
  2
TABLES
  0
TABLE
  2
VPORT
  5
8
330
0
100
AcDbSymbolTable
 70
     1
  0
VPORT
  5
29
330
8
100
AcDbSymbolTableRecord
100
AcDbViewportTableRecord
  2
*Active
 70
     0
 10
0.0
 20
0.0
 11
1.0
 21
1.0
 12
-1.79708573941301
 22
-11.02801129916585
 13
0.0
 23
0.0
 14
0.5
 24
0.5
 15
0.5
 25
0.5
 16
0.0
 26
0.0
 36
1.0
 17
0.0
 27
0.0
 37
0.0
 40
271.627333515797
 41
1.60267857142857
 42
50.0
 43
0.0
 44
0.0
 50
0.0
 51
0.0
 71
     0
 72
   100
 73
     1
 74
     3
 75
     0
 76
     0
 77
     0
 78
     0
281
     0
 65
     1
110
0.0
120
0.0
130
0.0
111
1.0
121
0.0
131
0.0
112
0.0
122
1.0
132
0.0
 79
     0
146
0.0
  0
ENDTAB
  0
TABLE
  2
LTYPE
  5
5
330
0
100
AcDbSymbolTable
 70
     8
  0
LTYPE
  5
14
330
5
100
AcDbSymbolTableRecord
100
AcDbLinetypeTableRecord
  2
ByBlock
 70
     0
  3

 72
    65
 73
     0
 40
0.0
  0
LTYPE
  5
15
330
5
100
AcDbSymbolTableRecord
100
AcDbLinetypeTableRecord
  2
ByLayer
 70
     0
  3

 72
    65
 73
     0
 40
0.0
  0
LTYPE
  5
16
330
5
100
AcDbSymbolTableRecord
100
AcDbLinetypeTableRecord
  2
Continuous
 70
     0
  3
Solid line
 72
    65
 73
     0
 40
0.0
  0
LTYPE
  5
3B
330
5
100
AcDbSymbolTableRecord
100
AcDbLinetypeTableRecord
  2
DASHED
 70
     0
  3
Dashed
 72
    65
 73
     2
 40
15.0
 49
7.0
 74
     0
 49
-8.0
 74
     0
  0
LTYPE
  5
3C
330
5
100
AcDbSymbolTableRecord
100
AcDbLinetypeTableRecord
  2
DOTTED
 70
     0
  3
Dotted
 72
    65
 73
     2
 40
1.0
 49
0.0
 74
     0
 49
-1.0
 74
     0
  0
LTYPE
  5
3D
330
5
100
AcDbSymbolTableRecord
100
AcDbLinetypeTableRecord
  2
DOT_CENTER
 70
     0
  3
Dot_Center
 72
    65
 73
     4
 40
14.0
 49
12.0
 74
     0
 49
-1.0
 74
     0
 49
0.0
 74
     0
 49
-1.0
 74
     0
  0
LTYPE
  5
3E
330
5
100
AcDbSymbolTableRecord
100
AcDbLinetypeTableRecord
  2
LONG_DASHED
 70
     0
  3
Long_Dashed
 72
    65
 73
     2
 40
15.0
 49
10.0
 74
     0
 49
-5.0
 74
     0
  0
LTYPE
  5
3F
330
5
100
AcDbSymbolTableRecord
100
AcDbLinetypeTableRecord
  2
DASH_CENTER
 70
     0
  3
Dash_Center
 72
    65
 73
     4
 40
14.0
 49
11.0
 74
     0
 49
-1.0
 74
     0
 49
1.0
 74
     0
 49
-1.0
 74
     0
  0
LTYPE
  5
40
330
5
100
AcDbSymbolTableRecord
100
AcDbLinetypeTableRecord
  2
PHANTOM
 70
     0
  3
Phantom
 72
    65
 73
     6
 40
13.0
 49
10.0
 74
     0
 49
-1.0
 74
     0
 49
0.0
 74
     0
 49
-1.0
 74
     0
 49
0.0
 74
     0
 49
-1.0
 74
     0
  0
LTYPE
  5
41
330
5
100
AcDbSymbolTableRecord
100
AcDbLinetypeTableRecord
  2
CENTER_DASH_DASH
 70
     0
  3
Center_Dash_Dash
 72
    65
 73
     6
 40
14.0
 49
9.0
 74
     0
 49
-1.0
 74
     0
 49
1.0
 74
     0
 49
-1.0
 74
     0
 49
1.0
 74
     0
 49
-1.0
 74
     0
  0
ENDTAB
  0
TABLE
  2
LAYER
  5
2
330
0
100
AcDbSymbolTable
 70
     4
  0
LAYER
  5
10
330
2
100
AcDbSymbolTableRecord
100
AcDbLayerTableRecord
  2
0
 70
     0
 62
     7
  6
Continuous
370
    -3
390
F
  0
LAYER
  5
42
330
2
100
AcDbSymbolTableRecord
100
AcDbLayerTableRecord
  2
1
 70
     0
 62
     7
  6
Continuous
370
    -3
390
F
  0
LAYER
  5
43
330
2
100
AcDbSymbolTableRecord
100
AcDbLayerTableRecord
  2
DEFAULT_1
 70
     0
 62
     7
  6
Continuous
370
    -3
390
F
  0
LAYER
  5
44
330
2
100
AcDbSymbolTableRecord
100
AcDbLayerTableRecord
  2
DEFAULT_2
 70
     0
 62
     7
  6
Continuous
370
    -3
390
F
  0
ENDTAB
  0
TABLE
  2
STYLE
  5
3
330
0
100
AcDbSymbolTable
 70
     2
  0
STYLE
  5
11
330
3
100
AcDbSymbolTableRecord
100
AcDbTextStyleTableRecord
  2
Standard
 70
     0
 40
0.0
 41
1.0
 50
0.0
 71
     0
 42
0.2
  3
txt
  4

  0
STYLE
  5
12D
330
3
100
AcDbSymbolTableRecord
100
AcDbTextStyleTableRecord
  2
CONVERTER_11
 70
     0
 40
0.0
 41
0.9
 50
0.0
 71
     0
 42
0.2
  3
txt.shx
  4

  0
ENDTAB
  0
TABLE
  2
VIEW
  5
6
330
0
100
AcDbSymbolTable
 70
     0
  0
ENDTAB
  0
TABLE
  2
UCS
  5
7
330
0
100
AcDbSymbolTable
 70
     0
  0
ENDTAB
  0
TABLE
  2
APPID
  5
9
330
0
100
AcDbSymbolTable
 70
     1
  0
APPID
  5
12
330
9
100
AcDbSymbolTableRecord
100
AcDbRegAppTableRecord
  2
ACAD
 70
     0
  0
ENDTAB
  0
TABLE
  2
DIMSTYLE
  5
A
330
0
100
AcDbSymbolTable
 70
    13
100
AcDbDimStyleTable
  0
DIMSTYLE
105
27
330
A
100
AcDbSymbolTableRecord
100
AcDbDimStyleTableRecord
  2
Standard
 70
     0
340
11
  0
DIMSTYLE
105
15D
102
{ACAD_REACTORS
330
15E
102
}
330
A
100
AcDbSymbolTableRecord
100
AcDbDimStyleTableRecord
  2
ME10_DIM_10
 70
     0
  3
142mm (<>``)
 41
3.5
 42
0.0
 44
2.0
 73
     0
 74
     0
 77
     1
 78
     4
140
3.5
144
0.03937007874016
147
2.0
172
     1
173
     1
176
     2
177
     2
178
     2
271
     3
340
12D
  0
DIMSTYLE
105
169
102
{ACAD_REACTORS
330
16A
102
}
330
A
100
AcDbSymbolTableRecord
100
AcDbDimStyleTableRecord
  2
ME10_DIM_11
 70
     0
  3
27mm (<>``)
 41
3.5
 42
0.0
 44
2.0
 73
     0
 74
     0
 77
     1
 78
     4
140
3.5
144
0.03937007874016
147
2.0
172
     1
173
     1
176
     2
177
     2
178
     2
271
     3
340
12D
  0
DIMSTYLE
105
175
102
{ACAD_REACTORS
330
176
102
}
330
A
100
AcDbSymbolTableRecord
100
AcDbDimStyleTableRecord
  2
ME10_DIM_12
 70
     0
  3
10mm (<>``)
 41
3.5
 42
0.0
 44
2.0
 73
     0
 74
     0
 77
     1
 78
     4
140
3.5
144
0.03937007874016
147
2.0
172
     1
173
     1
176
     2
177
     2
178
     2
271
     3
340
12D
  0
DIMSTYLE
105
180
102
{ACAD_REACTORS
330
181
102
}
330
A
100
AcDbSymbolTableRecord
100
AcDbDimStyleTableRecord
  2
ME10_DIM_13
 70
     0
  3
120mm (<>``)
 41
3.5
 42
0.0
 44
2.0
 73
     0
 74
     0
 77
     1
 78
     4
140
3.5
144
0.03937007874016
147
2.0
172
     1
173
     1
176
     2
177
     2
178
     2
271
     3
340
12D
  0
DIMSTYLE
105
18B
102
{ACAD_REACTORS
330
18C
102
}
330
A
100
AcDbSymbolTableRecord
100
AcDbDimStyleTableRecord
  2
ME10_DIM_14
 70
     0
  3
155mm (<>``)
 41
3.5
 42
0.0
 44
2.0
 73
     0
 74
     0
 77
     1
 78
     4
140
3.5
144
0.03937007874016
147
2.0
172
     1
173
     1
176
     2
177
     2
178
     2
271
     3
340
12D
  0
DIMSTYLE
105
197
102
{ACAD_REACTORS
330
198
102
}
330
A
100
AcDbSymbolTableRecord
100
AcDbDimStyleTableRecord
  2
ME10_DIM_15
 70
     0
  3
16mm (<>``)
 41
3.5
 42
0.0
 44
2.0
 73
     0
 74
     0
 77
     1
 78
     4
140
3.5
144
0.03937007874016
147
2.0
172
     1
173
     1
176
     2
177
     2
178
     2
271
     3
340
12D
  0
DIMSTYLE
105
1A3
102
{ACAD_REACTORS
330
1A4
102
}
330
A
100
AcDbSymbolTableRecord
100
AcDbDimStyleTableRecord
  2
ME10_DIM_16
 70
     0
  3
18mm (<>``)
 41
3.5
 42
0.0
 44
2.0
 73
     0
 74
     0
 77
     1
 78
     4
140
3.5
144
0.03937007874016
147
2.0
172
     1
173
     1
176
     2
177
     2
178
     2
271
     3
340
12D
  0
DIMSTYLE
105
1B0
102
{ACAD_REACTORS
330
1B1
102
}
330
A
100
AcDbSymbolTableRecord
100
AcDbDimStyleTableRecord
  2
ME10_DIM_17
 70
     0
  3
4mm (<>``)
 41
3.5
 42
0.0
 44
2.0
 73
     0
 74
     0
 77
     1
 78
     4
140
3.5
144
0.03937007874016
147
2.0
172
     1
173
     1
176
     2
177
     2
178
     2
271
     3
340
12D
  0
DIMSTYLE
105
1BB
102
{ACAD_REACTORS
330
1BC
102
}
330
A
100
AcDbSymbolTableRecord
100
AcDbDimStyleTableRecord
  2
ME10_DIM_18
 70
     0
  3
155mm (<>``)
 41
3.5
 42
0.0
 44
2.0
 73
     0
 74
     0
 77
     1
 78
     4
140
3.5
144
0.03937007874016
147
2.0
172
     1
173
     1
176
     2
177
     2
178
     2
271
     3
340
12D
  0
DIMSTYLE
105
1C7
102
{ACAD_REACTORS
330
1C8
102
}
330
A
100
AcDbSymbolTableRecord
100
AcDbDimStyleTableRecord
  2
ME10_DIM_19
 70
     0
  3
21.2mm (<>``)
 41
3.5
 42
0.0
 44
2.0
 73
     0
 74
     0
 77
     1
 78
     4
140
3.5
144
0.03937007874016
147
2.0
172
     1
173
     1
176
     2
177
     2
178
     2
271
     3
340
12D
  0
DIMSTYLE
105
1D3
102
{ACAD_REACTORS
330
1D4
102
}
330
A
100
AcDbSymbolTableRecord
100
AcDbDimStyleTableRecord
  2
ME10_DIM_20
 70
     0
  3
27.5mm (<>``)
 41
3.5
 42
0.0
 44
2.0
 73
     0
 74
     0
 77
     1
 78
     4
140
3.5
144
0.03937007874016
147
2.0
172
     1
173
     1
176
     2
177
     2
178
     2
271
     3
340
12D
  0
DIMSTYLE
105
1E0
102
{ACAD_REACTORS
330
1E1
102
}
330
A
100
AcDbSymbolTableRecord
100
AcDbDimStyleTableRecord
  2
ME10_DIM_21
 70
     0
  3
5mm (<>``)
 41
3.5
 42
0.0
 44
2.0
 73
     0
 74
     0
 77
     1
 78
     4
140
3.5
144
0.03937007874016
147
2.0
172
     1
173
     1
176
     2
177
     2
178
     2
271
     3
340
12D
  0
ENDTAB
  0
TABLE
  2
BLOCK_RECORD
  5
1
330
0
100
AcDbSymbolTable
 70
    15
  0
BLOCK_RECORD
  5
1F
330
1
100
AcDbSymbolTableRecord
100
AcDbBlockTableRecord
  2
*Model_Space
340
22
  0
BLOCK_RECORD
  5
1B
330
1
100
AcDbSymbolTableRecord
100
AcDbBlockTableRecord
  2
*Paper_Space
340
1E
  0
BLOCK_RECORD
  5
23
330
1
100
AcDbSymbolTableRecord
100
AcDbBlockTableRecord
  2
*Paper_Space0
340
26
  0
BLOCK_RECORD
  5
154
330
1
100
AcDbSymbolTableRecord
100
AcDbBlockTableRecord
  2
*D1
340
0
  0
BLOCK_RECORD
  5
15F
330
1
100
AcDbSymbolTableRecord
100
AcDbBlockTableRecord
  2
*D2
340
0
  0
BLOCK_RECORD
  5
16B
330
1
100
AcDbSymbolTableRecord
100
AcDbBlockTableRecord
  2
*D3
340
0
  0
BLOCK_RECORD
  5
177
330
1
100
AcDbSymbolTableRecord
100
AcDbBlockTableRecord
  2
*D4
340
0
  0
BLOCK_RECORD
  5
182
330
1
100
AcDbSymbolTableRecord
100
AcDbBlockTableRecord
  2
*D5
340
0
  0
BLOCK_RECORD
  5
18D
330
1
100
AcDbSymbolTableRecord
100
AcDbBlockTableRecord
  2
*D6
340
0
  0
BLOCK_RECORD
  5
199
330
1
100
AcDbSymbolTableRecord
100
AcDbBlockTableRecord
  2
*D7
340
0
  0
BLOCK_RECORD
  5
1A5
330
1
100
AcDbSymbolTableRecord
100
AcDbBlockTableRecord
  2
*D8
340
0
  0
BLOCK_RECORD
  5
1B2
330
1
100
AcDbSymbolTableRecord
100
AcDbBlockTableRecord
  2
*D9
340
0
  0
BLOCK_RECORD
  5
1BD
330
1
100
AcDbSymbolTableRecord
100
AcDbBlockTableRecord
  2
*D10
340
0
  0
BLOCK_RECORD
  5
1C9
330
1
100
AcDbSymbolTableRecord
100
AcDbBlockTableRecord
  2
*D11
340
0
  0
BLOCK_RECORD
  5
1D5
330
1
100
AcDbSymbolTableRecord
100
AcDbBlockTableRecord
  2
*D12
340
0
  0
BLOCK_RECORD
  5
1E2
330
1
100
AcDbSymbolTableRecord
100
AcDbBlockTableRecord
  2
*D13
340
0
102
{BLKREFS
331
1EA
102
}
  0
BLOCK_RECORD
  5
1EB
330
1
100
AcDbSymbolTableRecord
100
AcDbBlockTableRecord
  2
*D14
340
0
102
{BLKREFS
331
1F3
102
}
  0
ENDTAB
  0
ENDSEC
  0
SECTION
  2
BLOCKS
  0
BLOCK
  5
20
330
1F
100
AcDbEntity
  8
0
100
AcDbBlockBegin
  2
*Model_Space
 70
     0
 10
0.0
 20
0.0
 30
0.0
  3
*Model_Space
  1

  0
ENDBLK
  5
21
330
1F
100
AcDbEntity
  8
0
100
AcDbBlockEnd
  0
BLOCK
  5
1C
330
1B
100
AcDbEntity
 67
     1
  8
0
100
AcDbBlockBegin
  2
*Paper_Space
 70
     0
 10
0.0
 20
0.0
 30
0.0
  3
*Paper_Space
  1

  0
ENDBLK
  5
1D
330
1B
100
AcDbEntity
 67
     1
  8
0
100
AcDbBlockEnd
  0
BLOCK
  5
24
330
23
100
AcDbEntity
  8
0
100
AcDbBlockBegin
  2
*Paper_Space0
 70
     0
 10
0.0
 20
0.0
 30
0.0
  3
*Paper_Space0
  1

  0
ENDBLK
  5
25
330
23
100
AcDbEntity
  8
0
100
AcDbBlockEnd
  0
BLOCK
  5
15B
330
154
100
AcDbEntity
  8
0
100
AcDbBlockBegin
  2
*D1
 70
     1
 10
0.0
 20
0.0
 30
0.0
  3
*D1
  1

  0
LINE
  5
155
330
154
100
AcDbEntity
  8
1
  6
Continuous
 62
     2
100
AcDbLine
 10
177.3887512679591
 20
76.37660009231135
 30
0.0
 11
177.3887512679591
 21
-65.62339990768865
 31
0.0
  0
LINE
  5
156
330
154
100
AcDbEntity
  8
1
  6
Continuous
 62
     2
100
AcDbLine
 10
143.9486003432113
 20
-65.62339990768865
 30
0.0
 11
179.3887512679591
 21
-65.62339990768865
 31
0.0
  0
LINE
  5
157
330
154
100
AcDbEntity
  8
1
  6
Continuous
 62
     2
100
AcDbLine
 10
143.9486003432113
 20
76.37660009231135
 30
0.0
 11
179.3887512679591
 21
76.37660009231135
 31
0.0
  0
SOLID
  5
158
330
154
100
AcDbEntity
  8
1
 62
     2
100
AcDbTrace
 10
177.849535009515
 20
72.87660009231135
 30
0.0
 11
176.9279675264032
 21
72.87660009231135
 31
0.0
 12
177.3887512679591
 22
76.37660009231135
 32
0.0
 13
177.3887512679591
 23
76.37660009231135
 33
0.0
  0
SOLID
  5
159
330
154
100
AcDbEntity
  8
1
 62
     2
100
AcDbTrace
 10
176.9279675264032
 20
-62.12339990768865
 30
0.0
 11
177.849535009515
 21
-62.12339990768865
 31
0.0
 12
177.3887512679591
 22
-65.62339990768865
 32
0.0
 13
177.3887512679591
 23
-65.62339990768865
 33
0.0
  0
MTEXT
  5
15A
330
154
100
AcDbEntity
  8
1
 62
     2
100
AcDbMText
 10
175.3887512679591
 20
-14.65986345100198
 30
0.0
 40
3.5
 41
0.0
 71
     7
 72
     1
  1
\C2;142mm (\C2;5.591\C2;``)
  7
CONVERTER_11
 11
0.0
 21
1.0
 31
0.0
 73
     1
 44
0.60024009603842
  0
ENDBLK
  5
15C
330
154
100
AcDbEntity
  8
0
100
AcDbBlockEnd
  0
BLOCK
  5
167
330
15F
100
AcDbEntity
  8
0
100
AcDbBlockBegin
  2
*D2
 70
     1
 10
0.0
 20
0.0
 30
0.0
  3
*D2
  1

  0
LINE
  5
160
330
15F
100
AcDbEntity
  8
1
  6
Continuous
 62
     2
100
AcDbLine
 10
47.9119338369392
 20
-114.622960427562
 30
0.0
 11
74.9119338369392
 21
-114.622960427562
 31
0.0
  0
LINE
  5
161
330
15F
100
AcDbEntity
  8
1
  6
Continuous
 62
     2
100
AcDbLine
 10
9.0856958374908
 20
-114.622960427562
 30
0.0
 11
47.9119338369392
 21
-114.622960427562
 31
0.0
  0
LINE
  5
162
330
15F
100
AcDbEntity
  8
1
  6
Continuous
 62
     2
100
AcDbLine
 10
74.9119338369392
 20
-54.62339990768866
 30
0.0
 11
74.9119338369392
 21
-116.622960427562
 31
0.0
  0
LINE
  5
163
330
15F
100
AcDbEntity
  8
1
  6
Continuous
 62
     2
100
AcDbLine
 10
47.9119338369392
 20
-72.12339990768865
 30
0.0
 11
47.9119338369392
 21
-116.622960427562
 31
0.0
  0
SOLID
  5
164
330
15F
100
AcDbEntity
  8
1
 62
     2
100
AcDbTrace
 10
51.4119338369392
 20
-114.1621766860061
 30
0.0
 11
51.4119338369392
 21
-115.0837441691179
 31
0.0
 12
47.9119338369392
 22
-114.622960427562
 32
0.0
 13
47.9119338369392
 23
-114.622960427562
 33
0.0
  0
SOLID
  5
165
330
15F
100
AcDbEntity
  8
1
 62
     2
100
AcDbTrace
 10
71.4119338369392
 20
-115.0837441691179
 30
0.0
 11
71.4119338369392
 21
-114.1621766860061
 31
0.0
 12
74.9119338369392
 22
-114.622960427562
 32
0.0
 13
74.9119338369392
 23
-114.622960427562
 33
0.0
  0
MTEXT
  5
166
330
15F
100
AcDbEntity
  8
1
 62
     2
100
AcDbMText
 10
10.24069583754139
 20
-112.6230021700199
 30
0.0
 40
3.5
 41
0.0
 71
     7
 72
     1
  1
\C2;27mm (\C2;1.063\C2;``)
  7
CONVERTER_11
 11
0.9999999999970619
 21
2.424068405545306E-6
 31
0.0
 73
     1
 44
0.60024009603842
  0
ENDBLK
  5
168
330
15F
100
AcDbEntity
  8
0
100
AcDbBlockEnd
  0
BLOCK
  5
173
330
16B
100
AcDbEntity
  8
0
100
AcDbBlockBegin
  2
*D3
 70
     1
 10
0.0
 20
0.0
 30
0.0
  3
*D3
  1

  0
LINE
  5
16C
330
16B
100
AcDbEntity
  8
1
  6
Continuous
 62
     2
100
AcDbLine
 10
47.9119338369392
 20
-103.785670014645
 30
0.0
 11
9.02469550092939
 21
-103.785670014645
 31
0.0
  0
LINE
  5
16D
330
16B
100
AcDbEntity
  8
1
  6
Continuous
 62
     2
100
AcDbLine
 10
57.9119338369392
 20
-103.785670014645
 30
0.0
 11
47.9119338369392
 21
-103.785670014645
 31
0.0
  0
LINE
  5
16E
330
16B
100
AcDbEntity
  8
1
  6
Continuous
 62
     2
100
AcDbLine
 10
47.9119338369392
 20
-94.62339990768866
 30
0.0
 11
47.9119338369392
 21
-105.785670014645
 31
0.0
  0
LINE
  5
16F
330
16B
100
AcDbEntity
  8
1
  6
Continuous
 62
     2
100
AcDbLine
 10
57.9119338369392
 20
-72.12339990768865
 30
0.0
 11
57.9119338369392
 21
-105.785670014645
 31
0.0
  0
SOLID
  5
170
330
16B
100
AcDbEntity
  8
1
 62
     2
100
AcDbTrace
 10
54.4119338369392
 20
-104.2464537562009
 30
0.0
 11
54.4119338369392
 21
-103.3248862730891
 31
0.0
 12
57.9119338369392
 22
-103.785670014645
 32
0.0
 13
57.9119338369392
 23
-103.785670014645
 33
0.0
  0
SOLID
  5
171
330
16B
100
AcDbEntity
  8
1
 62
     2
100
AcDbTrace
 10
51.4119338369392
 20
-103.3248862730891
 30
0.0
 11
51.4119338369392
 21
-104.2464537562009
 31
0.0
 12
47.9119338369392
 22
-103.785670014645
 32
0.0
 13
47.9119338369392
 23
-103.785670014645
 33
0.0
  0
MTEXT
  5
172
330
16B
100
AcDbEntity
  8
1
 62
     2
100
AcDbMText
 10
9.12969550098
 20
-101.7857117571029
 30
0.0
 40
3.5
 41
0.0
 71
     7
 72
     1
  1
\C2;10mm (\C2;0.394\C2;``)
  7
CONVERTER_11
 11
0.9999999999970619
 21
2.424068405545306E-6
 31
0.0
 73
     1
 44
0.60024009603842
  0
ENDBLK
  5
174
330
16B
100
AcDbEntity
  8
0
100
AcDbBlockEnd
  0
BLOCK
  5
17E
330
177
100
AcDbEntity
  8
0
100
AcDbBlockBegin
  2
*D4
 70
     1
 10
0.0
 20
0.0
 30
0.0
  3
*D4
  1

  0
LINE
  5
178
330
177
100
AcDbEntity
  8
1
  6
Continuous
 62
     2
100
AcDbLine
 10
168.769916730974
 20
65.37660009231134
 30
0.0
 11
168.769916730974
 21
-54.62339990768866
 31
0.0
  0
LINE
  5
179
330
177
100
AcDbEntity
  8
1
  6
Continuous
 62
     2
100
AcDbLine
 10
145.1986003432113
 20
-54.62339990768866
 30
0.0
 11
170.769916730974
 21
-54.62339990768866
 31
0.0
  0
LINE
  5
17A
330
177
100
AcDbEntity
  8
1
  6
Continuous
 62
     2
100
AcDbLine
 10
145.1986003432113
 20
65.37660009231134
 30
0.0
 11
170.769916730974
 21
65.37660009231134
 31
0.0
  0
SOLID
  5
17B
330
177
100
AcDbEntity
  8
1
 62
     2
100
AcDbTrace
 10
169.2307004725299
 20
61.87660009231134
 30
0.0
 11
168.3091329894181
 21
61.87660009231134
 31
0.0
 12
168.769916730974
 22
65.37660009231134
 32
0.0
 13
168.769916730974
 23
65.37660009231134
 33
0.0
  0
SOLID
  5
17C
330
177
100
AcDbEntity
  8
1
 62
     2
100
AcDbTrace
 10
168.3091329894181
 20
-51.12339990768866
 30
0.0
 11
169.2307004725299
 21
-51.12339990768866
 31
0.0
 12
168.769916730974
 22
-54.62339990768866
 32
0.0
 13
168.769916730974
 23
-54.62339990768866
 33
0.0
  0
MTEXT
  5
17D
330
177
100
AcDbEntity
  8
1
 62
     2
100
AcDbMText
 10
166.769916730974
 20
-14.95487963725349
 30
0.0
 40
3.5
 41
0.0
 71
     7
 72
     1
  1
\C2;120mm (\C2;4.724\C2;``)
  7
CONVERTER_11
 11
0.0
 21
1.0
 31
0.0
 73
     1
 44
0.60024009603842
  0
ENDBLK
  5
17F
330
177
100
AcDbEntity
  8
0
100
AcDbBlockEnd
  0
BLOCK
  5
189
330
182
100
AcDbEntity
  8
0
100
AcDbBlockBegin
  2
*D5
 70
     1
 10
0.0
 20
0.0
 30
0.0
  3
*D5
  1

  0
LINE
  5
183
330
182
100
AcDbEntity
  8
1
  6
Continuous
 62
     2
100
AcDbLine
 10
187.164495411211
 20
-72.12339990768865
 30
0.0
 11
187.164495411211
 21
82.87660009231135
 31
0.0
  0
LINE
  5
184
330
182
100
AcDbEntity
  8
1
  6
Continuous
 62
     2
100
AcDbLine
 10
146.1986003432112
 20
82.87660009231135
 30
0.0
 11
189.164495411211
 21
82.87660009231135
 31
0.0
  0
LINE
  5
185
330
182
100
AcDbEntity
  8
1
  6
Continuous
 62
     2
100
AcDbLine
 10
146.1986003432112
 20
-72.12339990768865
 30
0.0
 11
189.164495411211
 21
-72.12339990768865
 31
0.0
  0
SOLID
  5
186
330
182
100
AcDbEntity
  8
1
 62
     2
100
AcDbTrace
 10
186.7037116696551
 20
-68.62339990768865
 30
0.0
 11
187.6252791527669
 21
-68.62339990768865
 31
0.0
 12
187.164495411211
 22
-72.12339990768865
 32
0.0
 13
187.164495411211
 23
-72.12339990768865
 33
0.0
  0
SOLID
  5
187
330
182
100
AcDbEntity
  8
1
 62
     2
100
AcDbTrace
 10
187.6252791527669
 20
79.37660009231135
 30
0.0
 11
186.7037116696551
 21
79.37660009231135
 31
0.0
 12
187.164495411211
 22
82.87660009231135
 32
0.0
 13
187.164495411211
 23
82.87660009231135
 33
0.0
  0
MTEXT
  5
188
330
182
100
AcDbEntity
  8
1
 62
     2
100
AcDbMText
 10
185.164495411211
 20
-11.78136159302699
 30
0.0
 40
3.5
 41
0.0
 71
     7
 72
     1
  1
\C2;155mm (\C2;6.102\C2;``)
  7
CONVERTER_11
 11
0.0
 21
1.0
 31
0.0
 73
     1
 44
0.60024009603842
  0
ENDBLK
  5
18A
330
182
100
AcDbEntity
  8
0
100
AcDbBlockEnd
  0
BLOCK
  5
195
330
18D
100
AcDbEntity
  8
0
100
AcDbBlockBegin
  2
*D6
 70
     1
 10
0.0
 20
0.0
 30
0.0
  3
*D6
  1

  0
LINE
  5
18E
330
18D
100
AcDbEntity
  8
1
  6
Continuous
 62
     2
100
AcDbLine
 10
137.1986003432113
 20
18.3048182481224
 30
0.0
 11
98.33333110653379
 21
18.3048182481224
 31
0.0
  0
LINE
  5
18F
330
18D
100
AcDbEntity
  8
1
  6
Continuous
 62
     2
100
AcDbLine
 10
153.1986003432113
 20
18.3048182481224
 30
0.0
 11
137.1986003432113
 21
18.3048182481224
 31
0.0
  0
LINE
  5
190
330
18D
100
AcDbEntity
  8
1
  6
Continuous
 62
     2
100
AcDbLine
 10
137.1986003432113
 20
5.37660009231135
 30
0.0
 11
137.1986003432113
 21
20.3048182481224
 31
0.0
  0
LINE
  5
191
330
18D
100
AcDbEntity
  8
1
  6
Continuous
 62
     2
100
AcDbLine
 10
153.1986003432113
 20
-46.62339990768864
 30
0.0
 11
153.1986003432113
 21
20.3048182481224
 31
0.0
  0
SOLID
  5
192
330
18D
100
AcDbEntity
  8
1
 62
     2
100
AcDbTrace
 10
149.6986003432113
 20
17.84403450656652
 30
0.0
 11
149.6986003432113
 21
18.76560198967829
 31
0.0
 12
153.1986003432113
 22
18.3048182481224
 32
0.0
 13
153.1986003432113
 23
18.3048182481224
 33
0.0
  0
SOLID
  5
193
330
18D
100
AcDbEntity
  8
1
 62
     2
100
AcDbTrace
 10
140.6986003432113
 20
18.76560198967829
 30
0.0
 11
140.6986003432113
 21
17.84403450656652
 31
0.0
 12
137.1986003432113
 22
18.3048182481224
 32
0.0
 13
137.1986003432113
 23
18.3048182481224
 33
0.0
  0
MTEXT
  5
194
330
18D
100
AcDbEntity
  8
1
 62
     2
100
AcDbMText
 10
98.43833110658439
 20
20.30477650566446
 30
0.0
 40
3.5
 41
0.0
 71
     7
 72
     1
  1
\C2;16mm (\C2;0.630\C2;``)
  7
CONVERTER_11
 11
0.9999999999970619
 21
2.424068405545306E-6
 31
0.0
 73
     1
 44
0.60024009603842
  0
ENDBLK
  5
196
330
18D
100
AcDbEntity
  8
0
100
AcDbBlockEnd
  0
BLOCK
  5
1A1
330
199
100
AcDbEntity
  8
0
100
AcDbBlockBegin
  2
*D7
 70
     1
 10
0.0
 20
0.0
 30
0.0
  3
*D7
  1

  0
LINE
  5
19A
330
199
100
AcDbEntity
  8
1
  6
Continuous
 62
     2
100
AcDbLine
 10
155.1986003432113
 20
-117.781584343866
 30
0.0
 11
137.1986003432113
 21
-117.781584343866
 31
0.0
  0
LINE
  5
19B
330
199
100
AcDbEntity
  8
1
  6
Continuous
 62
     2
100
AcDbLine
 10
195.259618300829
 20
-117.781584343866
 30
0.0
 11
155.1986003432113
 21
-117.781584343866
 31
0.0
  0
LINE
  5
19C
330
199
100
AcDbEntity
  8
1
  6
Continuous
 62
     2
100
AcDbLine
 10
137.1986003432113
 20
-63.12339990768867
 30
0.0
 11
137.1986003432113
 21
-119.781584343866
 31
0.0
  0
LINE
  5
19D
330
199
100
AcDbEntity
  8
1
  6
Continuous
 62
     2
100
AcDbLine
 10
155.1986003432113
 20
-63.12339990768867
 30
0.0
 11
155.1986003432113
 21
-119.781584343866
 31
0.0
  0
SOLID
  5
19E
330
199
100
AcDbEntity
  8
1
 62
     2
100
AcDbTrace
 10
151.6986003432113
 20
-118.2423680854219
 30
0.0
 11
151.6986003432113
 21
-117.3208006023101
 31
0.0
 12
155.1986003432113
 22
-117.781584343866
 32
0.0
 13
155.1986003432113
 23
-117.781584343866
 33
0.0
  0
SOLID
  5
19F
330
199
100
AcDbEntity
  8
1
 62
     2
100
AcDbTrace
 10
140.6986003432113
 20
-117.3208006023101
 30
0.0
 11
140.6986003432113
 21
-118.2423680854219
 31
0.0
 12
137.1986003432113
 22
-117.781584343866
 32
0.0
 13
137.1986003432113
 23
-117.781584343866
 33
0.0
  0
MTEXT
  5
1A0
330
199
100
AcDbEntity
  8
1
 62
     2
100
AcDbMText
 10
160.6271183008796
 20
-115.7816260863239
 30
0.0
 40
3.5
 41
0.0
 71
     7
 72
     1
  1
\C2;18mm (\C2;0.709\C2;``)
  7
CONVERTER_11
 11
0.9999999999970619
 21
2.424068405545306E-6
 31
0.0
 73
     1
 44
0.60024009603842
  0
ENDBLK
  5
1A2
330
199
100
AcDbEntity
  8
0
100
AcDbBlockEnd
  0
BLOCK
  5
1AE
330
1A5
100
AcDbEntity
  8
0
100
AcDbBlockBegin
  2
*D8
 70
     1
 10
0.0
 20
0.0
 30
0.0
  3
*D8
  1

  0
LINE
  5
1A6
330
1A5
100
AcDbEntity
  8
1
  6
Continuous
 62
     2
100
AcDbLine
 10
155.1986003432113
 20
-105.781584343866
 30
0.0
 11
148.1986003432113
 21
-105.781584343866
 31
0.0
  0
LINE
  5
1A7
330
1A5
100
AcDbEntity
  8
1
  6
Continuous
 62
     2
100
AcDbLine
 10
159.1986003432113
 20
-105.781584343866
 30
0.0
 11
155.1986003432113
 21
-105.781584343866
 31
0.0
  0
LINE
  5
1A8
330
1A5
100
AcDbEntity
  8
1
  6
Continuous
 62
     2
100
AcDbLine
 10
193.384289035212
 20
-105.781584343866
 30
0.0
 11
159.1986003432113
 21
-105.781584343866
 31
0.0
  0
LINE
  5
1A9
330
1A5
100
AcDbEntity
  8
1
  6
Continuous
 62
     2
100
AcDbLine
 10
155.1986003432113
 20
-63.12339990768866
 30
0.0
 11
155.1986003432113
 21
-107.781584343866
 31
0.0
  0
LINE
  5
1AA
330
1A5
100
AcDbEntity
  8
1
  6
Continuous
 62
     2
100
AcDbLine
 10
159.1986003432113
 20
-94.62339990768866
 30
0.0
 11
159.1986003432113
 21
-107.781584343866
 31
0.0
  0
SOLID
  5
1AB
330
1A5
100
AcDbEntity
  8
1
 62
     2
100
AcDbTrace
 10
162.6986003432113
 20
-105.3208006023101
 30
0.0
 11
162.6986003432113
 21
-106.2423680854219
 31
0.0
 12
159.1986003432113
 22
-105.781584343866
 32
0.0
 13
159.1986003432113
 23
-105.781584343866
 33
0.0
  0
SOLID
  5
1AC
330
1A5
100
AcDbEntity
  8
1
 62
     2
100
AcDbTrace
 10
151.6986003432113
 20
-106.2423680854219
 30
0.0
 11
151.6986003432113
 21
-105.3208006023101
 31
0.0
 12
155.1986003432113
 22
-105.781584343866
 32
0.0
 13
155.1986003432113
 23
-105.781584343866
 33
0.0
  0
MTEXT
  5
1AD
330
1A5
100
AcDbEntity
  8
1
 62
     2
100
AcDbMText
 10
162.6717890352542
 20
-103.7816191292476
 30
0.0
 40
3.5
 41
0.0
 71
     7
 72
     1
  1
\C2;4mm (\C2;0.157\C2;``)
  7
CONVERTER_11
 11
0.9999999999970619
 21
2.424068405545306E-6
 31
0.0
 73
     1
 44
0.60024009603842
  0
ENDBLK
  5
1AF
330
1A5
100
AcDbEntity
  8
0
100
AcDbBlockEnd
  0
BLOCK
  5
1B9
330
1B2
100
AcDbEntity
  8
0
100
AcDbBlockBegin
  2
*D9
 70
     1
 10
0.0
 20
0.0
 30
0.0
  3
*D9
  1

  0
LINE
  5
1B3
330
1B2
100
AcDbEntity
  8
1
  6
Continuous
 62
     2
100
AcDbLine
 10
-168.6711947349575
 20
82.87660009231135
 30
0.0
 11
-168.6711947349575
 21
-72.12339990768865
 31
0.0
  0
LINE
  5
1B4
330
1B2
100
AcDbEntity
  8
1
  6
Continuous
 62
     2
100
AcDbLine
 10
-144.1239404691353
 20
-72.12339990768865
 30
0.0
 11
-170.6711947349575
 21
-72.12339990768865
 31
0.0
  0
LINE
  5
1B5
330
1B2
100
AcDbEntity
  8
1
  6
Continuous
 62
     2
100
AcDbLine
 10
-144.1239404691353
 20
82.87660009231135
 30
0.0
 11
-170.6711947349575
 21
82.87660009231135
 31
0.0
  0
SOLID
  5
1B6
330
1B2
100
AcDbEntity
  8
1
 62
     2
100
AcDbTrace
 10
-168.2104109934016
 20
79.37660009231135
 30
0.0
 11
-169.1319784765134
 21
79.37660009231135
 31
0.0
 12
-168.6711947349575
 22
82.87660009231135
 32
0.0
 13
-168.6711947349575
 23
82.87660009231135
 33
0.0
  0
SOLID
  5
1B7
330
1B2
100
AcDbEntity
  8
1
 62
     2
100
AcDbTrace
 10
-169.1319784765134
 20
-68.62339990768865
 30
0.0
 11
-168.2104109934016
 21
-68.62339990768865
 31
0.0
 12
-168.6711947349575
 22
-72.12339990768865
 32
0.0
 13
-168.6711947349575
 23
-72.12339990768865
 33
0.0
  0
MTEXT
  5
1B8
330
1B2
100
AcDbEntity
  8
1
 62
     2
100
AcDbMText
 10
-170.6711947349575
 20
-13.4200484116608
 30
0.0
 40
3.5
 41
0.0
 71
     7
 72
     1
  1
\C2;155mm (\C2;6.102\C2;``)
  7
CONVERTER_11
 11
0.0
 21
1.0
 31
0.0
 73
     1
 44
0.60024009603842
  0
ENDBLK
  5
1BA
330
1B2
100
AcDbEntity
  8
0
100
AcDbBlockEnd
  0
BLOCK
  5
1C5
330
1BD
100
AcDbEntity
  8
0
100
AcDbBlockBegin
  2
*D10
 70
     1
 10
0.0
 20
0.0
 30
0.0
  3
*D10
  1

  0
LINE
  5
1BE
330
1BD
100
AcDbEntity
  8
1
  6
Continuous
 62
     2
100
AcDbLine
 10
-154.7239404691353
 20
-119.257398602054
 30
0.0
 11
-133.5239404691354
 21
-119.257398602054
 31
0.0
  0
LINE
  5
1BF
330
1BD
100
AcDbEntity
  8
1
  6
Continuous
 62
     2
100
AcDbLine
 10
-199.67495248489
 20
-119.257398602054
 30
0.0
 11
-154.7239404691353
 21
-119.257398602054
 31
0.0
  0
LINE
  5
1C0
330
1BD
100
AcDbEntity
  8
1
  6
Continuous
 62
     2
100
AcDbLine
 10
-133.5239404691354
 20
-61.52339990768866
 30
0.0
 11
-133.5239404691354
 21
-121.257398602054
 31
0.0
  0
LINE
  5
1C1
330
1BD
100
AcDbEntity
  8
1
  6
Continuous
 62
     2
100
AcDbLine
 10
-154.7239404691353
 20
-61.52339990768865
 30
0.0
 11
-154.7239404691353
 21
-121.257398602054
 31
0.0
  0
SOLID
  5
1C2
330
1BD
100
AcDbEntity
  8
1
 62
     2
100
AcDbTrace
 10
-151.2239404691353
 20
-118.7966148604981
 30
0.0
 11
-151.2239404691353
 21
-119.7181823436099
 31
0.0
 12
-154.7239404691353
 22
-119.257398602054
 32
0.0
 13
-154.7239404691353
 23
-119.257398602054
 33
0.0
  0
SOLID
  5
1C3
330
1BD
100
AcDbEntity
  8
1
 62
     2
100
AcDbTrace
 10
-137.0239404691354
 20
-119.7181823436099
 30
0.0
 11
-137.0239404691354
 21
-118.7966148604981
 31
0.0
 12
-133.5239404691354
 22
-119.257398602054
 32
0.0
 13
-133.5239404691354
 23
-119.257398602054
 33
0.0
  0
MTEXT
  5
1C4
330
1BD
100
AcDbEntity
  8
1
 62
     2
100
AcDbMText
 10
-201.0224524848225
 20
-117.2574542586646
 30
0.0
 40
3.5
 41
0.0
 71
     7
 72
     1
  1
\C2;21.2mm (\C2;0.835\C2;``)
  7
CONVERTER_11
 11
0.9999999999970619
 21
2.424068405545306E-6
 31
0.0
 73
     1
 44
0.60024009603842
  0
ENDBLK
  5
1C6
330
1BD
100
AcDbEntity
  8
0
100
AcDbBlockEnd
  0
BLOCK
  5
1D1
330
1C9
100
AcDbEntity
  8
0
100
AcDbBlockBegin
  2
*D11
 70
     1
 10
0.0
 20
0.0
 30
0.0
  3
*D11
  1

  0
LINE
  5
1CA
330
1C9
100
AcDbEntity
  8
1
  6
Continuous
 62
     2
100
AcDbLine
 10
-17.67182954953756
 20
-57.8738883886215
 30
0.0
 11
-45.17182954953756
 21
-57.8738883886215
 31
0.0
  0
LINE
  5
1CB
330
1C9
100
AcDbEntity
  8
1
  6
Continuous
 62
     2
100
AcDbLine
 10
23.8153870833056
 20
-57.8738883886215
 30
0.0
 11
-17.67182954953756
 21
-57.8738883886215
 31
0.0
  0
LINE
  5
1CC
330
1C9
100
AcDbEntity
  8
1
  6
Continuous
 62
     2
100
AcDbLine
 10
-45.17182954953756
 20
-45.43658379902569
 30
0.0
 11
-45.17182954953756
 21
-59.8738883886215
 31
0.0
  0
LINE
  5
1CD
330
1C9
100
AcDbEntity
  8
1
  6
Continuous
 62
     2
100
AcDbLine
 10
-17.67182954953756
 20
-42.23658379902567
 30
0.0
 11
-17.67182954953756
 21
-59.8738883886215
 31
0.0
  0
SOLID
  5
1CE
330
1C9
100
AcDbEntity
  8
1
 62
     2
100
AcDbTrace
 10
-21.17182954953756
 20
-58.33467213017739
 30
0.0
 11
-21.17182954953756
 21
-57.41310464706562
 31
0.0
 12
-17.67182954953756
 22
-57.8738883886215
 32
0.0
 13
-17.67182954953756
 23
-57.8738883886215
 33
0.0
  0
SOLID
  5
1CF
330
1C9
100
AcDbEntity
  8
1
 62
     2
100
AcDbTrace
 10
-41.67182954953756
 20
-57.41310464706562
 30
0.0
 11
-41.67182954953756
 21
-58.33467213017739
 31
0.0
 12
-45.17182954953756
 22
-57.8738883886215
 32
0.0
 13
-45.17182954953756
 23
-57.8738883886215
 33
0.0
  0
MTEXT
  5
1D0
330
1C9
100
AcDbEntity
  8
1
 62
     2
100
AcDbMText
 10
-15.50711291662694
 20
-55.87394404523209
 30
0.0
 40
3.5
 41
0.0
 71
     7
 72
     1
  1
\C2;27.5mm (\C2;1.083\C2;``)
  7
CONVERTER_11
 11
0.9999999999970619
 21
2.424068405545306E-6
 31
0.0
 73
     1
 44
0.60024009603842
  0
ENDBLK
  5
1D2
330
1C9
100
AcDbEntity
  8
0
100
AcDbBlockEnd
  0
BLOCK
  5
1DE
330
1D5
100
AcDbEntity
  8
0
100
AcDbBlockBegin
  2
*D12
 70
     1
 10
0.0
 20
0.0
 30
0.0
  3
*D12
  1

  0
LINE
  5
1D6
330
1D5
100
AcDbEntity
  8
1
  6
Continuous
 62
     2
100
AcDbLine
 10
-154.7239404691354
 20
-108.1953743240401
 30
0.0
 11
-147.7239404691354
 21
-108.1953743240401
 31
0.0
  0
LINE
  5
1D7
330
1D5
100
AcDbEntity
  8
1
  6
Continuous
 62
     2
100
AcDbLine
 10
-159.7239404691354
 20
-108.1953743240401
 30
0.0
 11
-154.7239404691354
 21
-108.1953743240401
 31
0.0
  0
LINE
  5
1D8
330
1D5
100
AcDbEntity
  8
1
  6
Continuous
 62
     2
100
AcDbLine
 10
-198.9116864270676
 20
-108.1953743240401
 30
0.0
 11
-159.7239404691354
 21
-108.1953743240401
 31
0.0
  0
LINE
  5
1D9
330
1D5
100
AcDbEntity
  8
1
  6
Continuous
 62
     2
100
AcDbLine
 10
-154.7239404691354
 20
-61.52339990768871
 30
0.0
 11
-154.7239404691354
 21
-110.1953743240401
 31
0.0
  0
LINE
  5
1DA
330
1D5
100
AcDbEntity
  8
1
  6
Continuous
 62
     2
100
AcDbLine
 10
-159.7239404691354
 20
-94.62339990768871
 30
0.0
 11
-159.7239404691354
 21
-110.1953743240401
 31
0.0
  0
SOLID
  5
1DB
330
1D5
100
AcDbEntity
  8
1
 62
     2
100
AcDbTrace
 10
-163.2239404691354
 20
-108.656158065596
 30
0.0
 11
-163.2239404691354
 21
-107.7345905824842
 31
0.0
 12
-159.7239404691354
 22
-108.1953743240401
 32
0.0
 13
-159.7239404691354
 23
-108.1953743240401
 33
0.0
  0
SOLID
  5
1DC
330
1D5
100
AcDbEntity
  8
1
 62
     2
100
AcDbTrace
 10
-151.2239404691354
 20
-107.7345905824842
 30
0.0
 11
-151.2239404691354
 21
-108.656158065596
 31
0.0
 12
-154.7239404691354
 22
-108.1953743240401
 32
0.0
 13
-154.7239404691354
 23
-108.1953743240401
 33
0.0
  0
MTEXT
  5
1DD
330
1D5
100
AcDbEntity
  8
1
 62
     2
100
AcDbMText
 10
-198.0366864270254
 20
-106.1954091094217
 30
0.0
 40
3.5
 41
0.0
 71
     7
 72
     1
  1
\C2;5mm (\C2;0.197\C2;``)
  7
CONVERTER_11
 11
0.9999999999970619
 21
2.424068405545306E-6
 31
0.0
 73
     1
 44
0.60024009603842
  0
ENDBLK
  5
1DF
330
1D5
100
AcDbEntity
  8
0
100
AcDbBlockEnd
  0
BLOCK
  5
1E8
330
1E2
100
AcDbEntity
  8
0
100
AcDbBlockBegin
  2
*D13
 70
     1
 10
0.0
 20
0.0
 30
0.0
  3
*D13
  1

  0
LINE
  5
1E3
330
1E2
100
AcDbEntity
  8
1
  6
Continuous
 62
     2
100
AcDbLine
 10
148.0257858919593
 20
-58.62036653427443
 30
0.0
 11
151.7273959913178
 21
-54.89738618617606
 31
0.0
  0
LINE
  5
1E4
330
1E2
100
AcDbEntity
  8
1
  6
Continuous
 62
     2
100
AcDbLine
 10
97.95934874185531
 20
-108.9758487719741
 30
0.0
 11
139.0714147944633
 21
-67.62643328110289
 31
0.0
  0
SOLID
  5
1E5
330
1E2
100
AcDbEntity
  8
1
 62
     2
100
AcDbTrace
 10
136.9304345024216
 20
-70.43330432295198
 30
0.0
 11
136.276914954027
 21
-69.78353603671827
 31
0.0
 12
139.0714147944633
 22
-67.62643328110289
 32
0.0
 13
139.0714147944633
 23
-67.62643328110289
 33
0.0
  0
SOLID
  5
1E6
330
1E2
100
AcDbEntity
  8
1
 62
     2
100
AcDbTrace
 10
150.166766184001
 20
-55.81349549242534
 30
0.0
 11
150.8202857323956
 21
-56.46326377865905
 31
0.0
 12
148.0257858919593
 22
-58.62036653427443
 32
0.0
 13
148.0257858919593
 23
-58.62036653427443
 33
0.0
  0
MTEXT
  5
1E7
330
1E2
100
AcDbEntity
  8
1
 62
     2
100
AcDbMText
 10
96.54107051400831
 20
-107.5657115912661
 30
0.0
 40
3.5
 41
0.0
 71
     7
 72
     1
  1
cutter \U+00f81/2``
  7
CONVERTER_11
 11
0.7050685903540124
 21
0.7091391139234994
 31
0.0
 73
     1
 44
0.60024009603842
  0
ENDBLK
  5
1E9
330
1E2
100
AcDbEntity
  8
0
100
AcDbBlockEnd
  0
BLOCK
  5
1F1
330
1EB
100
AcDbEntity
  8
0
100
AcDbBlockBegin
  2
*D14
 70
     1
 10
0.0
 20
0.0
 30
0.0
  3
*D14
  1

  0
LINE
  5
1EC
330
1EB
100
AcDbEntity
  8
1
  6
Continuous
 62
     2
100
AcDbLine
 10
144.8476497149886
 20
75.72473170060583
 30
0.0
 11
140.1193225162092
 21
73.44319232963652
 31
0.0
  0
LINE
  5
1ED
330
1EB
100
AcDbEntity
  8
1
  6
Continuous
 62
     2
100
AcDbLine
 10
195.2031213298623
 20
100.0225406726077
 30
0.0
 11
147.549550971434
 21
77.02846848401687
 31
0.0
  0
SOLID
  5
1EE
330
1EB
100
AcDbEntity
  8
1
 62
     2
100
AcDbTrace
 10
150.5015221995988
 20
78.96449212141624
 30
0.0
 11
150.9020160083083
 21
78.13449734124329
 31
0.0
 12
147.549550971434
 22
77.02846848401687
 32
0.0
 13
147.549550971434
 23
77.02846848401687
 33
0.0
  0
SOLID
  5
1EF
330
1EB
100
AcDbEntity
  8
1
 62
     2
100
AcDbTrace
 10
141.8956784868238
 20
73.78870806320646
 30
0.0
 11
141.4951846781143
 21
74.61870284337941
 31
0.0
 12
144.8476497149886
 22
75.72473170060583
 32
0.0
 13
144.8476497149886
 23
75.72473170060583
 33
0.0
  0
MTEXT
  5
1F0
330
1EB
100
AcDbEntity
  8
1
 62
     2
100
AcDbMText
 10
162.4492770638193
 20
86.4386276853349
 30
0.0
 40
3.5
 41
0.0
 71
     7
 72
     1
  1
\C2;\U+00f83mm (\C2;0.118\C2;``)
  7
CONVERTER_11
 11
0.9006337521484554
 21
0.4345789278036781
 31
0.0
 73
     1
 44
0.60024009603842
  0
ENDBLK
  5
1F2
330
1EB
100
AcDbEntity
  8
0
100
AcDbBlockEnd
  0
ENDSEC
  0
SECTION
  2
ENTITIES
  0
POINT
  5
45
330
1F
100
AcDbEntity
  8
1
 62
     3
 60
     1
100
AcDbPoint
 10
143.5486003432113
 20
-70.93304297969
 30
0.0
  0
POINT
  5
46
330
1F
100
AcDbEntity
  8
1
 62
     3
 60
     1
100
AcDbPoint
 10
143.5486003432113
 20
-55.93304297969
 30
0.0
  0
POINT
  5
47
330
1F
100
AcDbEntity
  8
1
 62
     3
 60
     1
100
AcDbPoint
 10
137.1986003432113
 20
-63.12339990768867
 30
0.0
  0
POINT
  5
48
330
1F
100
AcDbEntity
  8
1
 62
     3
 60
     1
100
AcDbPoint
 10
143.5486003432113
 20
-63.12339990768867
 30
0.0
  0
POINT
  5
49
330
1F
100
AcDbEntity
  8
1
 62
     3
 60
     1
100
AcDbPoint
 10
153.1986003432113
 20
57.37660009231134
 30
0.0
  0
POINT
  5
4A
330
1F
100
AcDbEntity
  8
1
 62
     3
 60
     1
100
AcDbPoint
 10
146.1986003432113
 20
73.87660009231135
 30
0.0
  0
POINT
  5
4B
330
1F
100
AcDbEntity
  8
1
 62
     3
 60
     1
100
AcDbPoint
 10
153.1986003432113
 20
5.37660009231135
 30
0.0
  0
POINT
  5
4C
330
1F
100
AcDbEntity
  8
1
 62
     3
 60
     1
100
AcDbPoint
 10
159.1986003432113
 20
73.87660009231135
 30
0.0
  0
POINT
  5
4D
330
1F
100
AcDbEntity
  8
1
 62
     3
 60
     1
100
AcDbPoint
 10
130.5349461857596
 20
73.87660009231135
 30
0.0
  0
POINT
  5
4E
330
1F
100
AcDbEntity
  8
1
 62
     3
 60
     1
100
AcDbPoint
 10
-45.17182954953756
 20
-21.13658379902568
 30
0.0
  0
POINT
  5
4F
330
1F
100
AcDbEntity
  8
1
 62
     3
 60
     1
100
AcDbPoint
 10
-150.2239404691353
 20
-94.62339990768865
 30
0.0
  0
POINT
  5
50
330
1F
100
AcDbEntity
  8
1
 62
     3
 60
     1
100
AcDbPoint
 10
-150.2239404691353
 20
105.3766000923114
 30
0.0
  0
LINE
  5
51
330
1F
100
AcDbEntity
  8
1
  6
Continuous
 62
     7
100
AcDbLine
 10
119.1986003432113
 20
12.7147680439448
 30
0.0
 11
119.1986003432113
 21
-94.62339990768866
 31
0.0
  0
LINE
  5
52
330
1F
100
AcDbEntity
  8
1
  6
DOT_CENTER
 62
     2
100
AcDbLine
 10
143.5486003432113
 20
-55.93304297969
 30
0.0
 11
143.5486003432113
 21
-70.93304297969
 31
0.0
  0
LINE
  5
53
330
1F
100
AcDbEntity
  8
1
  6
DOT_CENTER
 62
     2
100
AcDbLine
 10
137.1986003432113
 20
-63.12339990768867
 30
0.0
 11
130.5349461857596
 21
-63.12339990768866
 31
0.0
  0
LINE
  5
54
330
1F
100
AcDbEntity
  8
1
  6
DOT_CENTER
 62
     2
100
AcDbLine
 10
146.1986003432113
 20
13.7329803655398
 30
0.0
 11
146.1986003432113
 21
5.37660009231135
 31
0.0
  0
LINE
  5
55
330
1F
100
AcDbEntity
  8
1
  6
DOT_CENTER
 62
     2
100
AcDbLine
 10
146.1986003432113
 20
88.4334180606021
 30
0.0
 11
146.1986003432113
 21
23.7953625217101
 31
0.0
  0
LINE
  5
56
330
1F
100
AcDbEntity
  8
1
  6
DOT_CENTER
 62
     2
100
AcDbLine
 10
145.1986003432113
 20
23.9064781914974
 30
0.0
 11
145.1986003432113
 21
69.88724435850082
 31
0.0
  0
LINE
  5
57
330
1F
100
AcDbEntity
  8
1
  6
DOT_CENTER
 62
     2
100
AcDbLine
 10
143.9486003432113
 20
-65.62339990768865
 30
0.0
 11
148.4486003432113
 21
-65.62339990768865
 31
0.0
  0
LINE
  5
58
330
1F
100
AcDbEntity
  8
1
  6
DOT_CENTER
 62
     2
100
AcDbLine
 10
143.9486003432113
 20
76.37660009231135
 30
0.0
 11
148.4486003432113
 21
76.37660009231135
 31
0.0
  0
LINE
  5
59
330
1F
100
AcDbEntity
  8
1
  6
Continuous
 62
     7
100
AcDbLine
 10
155.1986003432113
 20
73.87660009231135
 30
0.0
 11
155.1986003432113
 21
5.37660009231135
 31
0.0
  0
LINE
  5
5A
330
1F
100
AcDbEntity
  8
1
  6
Continuous
 62
     7
100
AcDbLine
 10
57.9119338369392
 20
65.37660009231138
 30
0.0
 11
57.9119338369392
 21
-54.62339990768865
 31
0.0
  0
LINE
  5
5B
330
1F
100
AcDbEntity
  8
1
  6
DOT_CENTER
 62
     2
100
AcDbLine
 10
45.6797665478874
 20
5.37660009231135
 30
0.0
 11
97.01639349968849
 21
5.37660009231135
 31
0.0
  0
LINE
  5
5C
330
1F
100
AcDbEntity
  8
1
  6
DOT_CENTER
 62
     2
100
AcDbLine
 10
92.9119338369392
 20
109.4193999621323
 30
0.0
 11
92.9119338369392
 21
105.3766000923114
 31
0.0
  0
LINE
  5
5D
330
1F
100
AcDbEntity
  8
1
  6
DOT_CENTER
 62
     2
100
AcDbLine
 10
92.9119338369392
 20
-104.1112895265787
 30
0.0
 11
92.9119338369392
 21
-94.62339990768866
 31
0.0
  0
LINE
  5
5E
330
1F
100
AcDbEntity
  8
1
  6
DOT_CENTER
 62
     2
100
AcDbLine
 10
92.9119338369392
 20
-94.62339990768866
 30
0.0
 11
92.9119338369392
 21
105.3766000923114
 31
0.0
  0
LINE
  5
5F
330
1F
100
AcDbEntity
  8
1
  6
Continuous
 62
     7
100
AcDbLine
 10
47.9119338369392
 20
-94.62339990768866
 30
0.0
 11
47.9119338369392
 21
-72.12339990768865
 31
0.0
  0
LINE
  5
60
330
1F
100
AcDbEntity
  8
1
  6
Continuous
 62
     7
100
AcDbLine
 10
47.9119338369392
 20
-72.12339990768865
 30
0.0
 11
57.9119338369392
 21
-72.12339990768865
 31
0.0
  0
LINE
  5
61
330
1F
100
AcDbEntity
  8
1
  6
Continuous
 62
     7
100
AcDbLine
 10
57.9119338369392
 20
-72.12339990768865
 30
0.0
 11
57.9119338369392
 21
-54.62339990768865
 31
0.0
  0
LINE
  5
62
330
1F
100
AcDbEntity
  8
1
  6
Continuous
 62
     7
100
AcDbLine
 10
57.9119338369392
 20
-54.62339990768865
 30
0.0
 11
74.9119338369392
 21
-54.62339990768866
 31
0.0
  0
LINE
  5
63
330
1F
100
AcDbEntity
  8
1
  6
Continuous
 62
     7
100
AcDbLine
 10
74.9119338369392
 20
-54.62339990768866
 30
0.0
 11
74.9119338369392
 21
65.37660009231135
 31
0.0
  0
LINE
  5
64
330
1F
100
AcDbEntity
  8
1
  6
Continuous
 62
     7
100
AcDbLine
 10
74.9119338369392
 20
65.37660009231135
 30
0.0
 11
57.9119338369392
 21
65.37660009231138
 31
0.0
  0
LINE
  5
65
330
1F
100
AcDbEntity
  8
1
  6
Continuous
 62
     7
100
AcDbLine
 10
57.9119338369392
 20
65.37660009231138
 30
0.0
 11
57.9119338369392
 21
82.87660009231135
 31
0.0
  0
LINE
  5
66
330
1F
100
AcDbEntity
  8
1
  6
Continuous
 62
     7
100
AcDbLine
 10
47.9119338369392
 20
-72.12339990768865
 30
0.0
 11
47.9119338369392
 21
82.87660009231132
 31
0.0
  0
LINE
  5
67
330
1F
100
AcDbEntity
  8
1
  6
Continuous
 62
     7
100
AcDbLine
 10
57.9119338369392
 20
82.87660009231135
 30
0.0
 11
47.9119338369392
 21
82.87660009231132
 31
0.0
  0
LINE
  5
68
330
1F
100
AcDbEntity
  8
1
  6
Continuous
 62
     7
100
AcDbLine
 10
47.9119338369392
 20
82.87660009231132
 30
0.0
 11
47.9119338369392
 21
105.3766000923114
 31
0.0
  0
LINE
  5
69
330
1F
100
AcDbEntity
  8
1
  6
DOT_CENTER
 62
     2
100
AcDbLine
 10
45.84701187687639
 20
-94.62339990768866
 30
0.0
 11
47.9119338369392
 21
-94.62339990768866
 31
0.0
  0
LINE
  5
6A
330
1F
100
AcDbEntity
  8
1
  6
DOT_CENTER
 62
     2
100
AcDbLine
 10
47.9119338369392
 20
-94.62339990768866
 30
0.0
 11
92.9119338369392
 21
-94.62339990768866
 31
0.0
  0
LINE
  5
6B
330
1F
100
AcDbEntity
  8
1
  6
DOT_CENTER
 62
     2
100
AcDbLine
 10
87.9119338369392
 20
-94.62339990768866
 30
0.0
 11
94.0510962490049
 21
-94.62339990768866
 31
0.0
  0
LINE
  5
6C
330
1F
100
AcDbEntity
  8
1
  6
DOT_CENTER
 62
     2
100
AcDbLine
 10
45.84701187687639
 20
105.3766000923114
 30
0.0
 11
47.9119338369392
 21
105.3766000923114
 31
0.0
  0
LINE
  5
6D
330
1F
100
AcDbEntity
  8
1
  6
DOT_CENTER
 62
     2
100
AcDbLine
 10
47.9119338369392
 20
105.3766000923114
 30
0.0
 11
92.9119338369392
 21
105.3766000923114
 31
0.0
  0
LINE
  5
6E
330
1F
100
AcDbEntity
  8
1
  6
DOT_CENTER
 62
     2
100
AcDbLine
 10
87.9119338369392
 20
105.3766000923114
 30
0.0
 11
94.0510962490049
 21
105.3766000923114
 31
0.0
  0
LINE
  5
6F
330
1F
100
AcDbEntity
  8
1
  6
DOT_CENTER
 62
     2
100
AcDbLine
 10
113.0594379311456
 20
5.37660009231135
 30
0.0
 11
146.1986003432113
 21
5.37660009231135
 31
0.0
  0
LINE
  5
70
330
1F
100
AcDbEntity
  8
1
  6
DOT_CENTER
 62
     2
100
AcDbLine
 10
159.1986003432113
 20
-94.62339990768866
 30
0.0
 11
165.8813092857647
 21
-94.62339990768866
 31
0.0
  0
LINE
  5
71
330
1F
100
AcDbEntity
  8
1
  6
DOT_CENTER
 62
     2
100
AcDbLine
 10
159.1986003432113
 20
105.3766000923114
 30
0.0
 11
165.8813092857647
 21
105.3766000923114
 31
0.0
  0
LINE
  5
72
330
1F
100
AcDbEntity
  8
1
  6
Continuous
 62
     7
100
AcDbLine
 10
159.1986003432113
 20
-94.62339990768866
 30
0.0
 11
159.1986003432113
 21
73.87660009231135
 31
0.0
  0
LINE
  5
73
330
1F
100
AcDbEntity
  8
1
  6
DOT_CENTER
 62
     2
100
AcDbLine
 10
135.1986003432113
 20
-94.62339990768866
 30
0.0
 11
159.1986003432113
 21
-94.62339990768866
 31
0.0
  0
LINE
  5
74
330
1F
100
AcDbEntity
  8
1
  6
DOT_CENTER
 62
     2
100
AcDbLine
 10
135.1986003432113
 20
105.3766000923114
 30
0.0
 11
159.1986003432113
 21
105.3766000923114
 31
0.0
  0
LINE
  5
75
330
1F
100
AcDbEntity
  8
1
  6
Continuous
 62
     7
100
AcDbLine
 10
135.1986003432113
 20
-94.62339990768866
 30
0.0
 11
135.1986003432113
 21
105.3766000923114
 31
0.0
  0
LINE
  5
76
330
1F
100
AcDbEntity
  8
1
  6
DOT_CENTER
 62
     2
100
AcDbLine
 10
116.6901158396337
 20
-94.62339990768868
 30
0.0
 11
119.1986003432113
 21
-94.62339990768866
 31
0.0
  0
LINE
  5
77
330
1F
100
AcDbEntity
  8
1
  6
DOT_CENTER
 62
     2
100
AcDbLine
 10
116.6901158396337
 20
105.3766000923114
 30
0.0
 11
119.1986003432113
 21
105.3766000923114
 31
0.0
  0
LINE
  5
78
330
1F
100
AcDbEntity
  8
1
  6
Continuous
 62
     7
100
AcDbLine
 10
137.1986003432113
 20
73.87660009231135
 30
0.0
 11
137.1986003432113
 21
5.37660009231135
 31
0.0
  0
LINE
  5
79
330
1F
100
AcDbEntity
  8
1
  6
DOT_CENTER
 62
     2
100
AcDbLine
 10
130.5349461857596
 20
73.87660009231135
 30
0.0
 11
159.1986003432113
 21
73.87660009231135
 31
0.0
  0
LINE
  5
7A
330
1F
100
AcDbEntity
  8
1
  6
Continuous
 62
     7
100
AcDbLine
 10
159.1986003432113
 20
73.87660009231135
 30
0.0
 11
159.1986003432113
 21
105.3766000923114
 31
0.0
  0
LINE
  5
7B
330
1F
100
AcDbEntity
  8
1
  6
DOT_CENTER
 62
     2
100
AcDbLine
 10
146.1986003432113
 20
5.37660009231135
 30
0.0
 11
153.1986003432113
 21
5.37660009231135
 31
0.0
  0
LINE
  5
7C
330
1F
100
AcDbEntity
  8
1
  6
Continuous
 62
     7
100
AcDbLine
 10
153.1986003432113
 20
57.37660009231134
 30
0.0
 11
153.1986003432113
 21
5.37660009231135
 31
0.0
  0
LINE
  5
7D
330
1F
100
AcDbEntity
  8
1
  6
DOT_CENTER
 62
     2
100
AcDbLine
 10
153.1986003432113
 20
5.37660009231135
 30
0.0
 11
161.8813092857647
 21
5.37660009231135
 31
0.0
  0
LINE
  5
7E
330
1F
100
AcDbEntity
  8
1
  6
Continuous
 62
     7
100
AcDbLine
 10
159.1986003432113
 20
-63.12339990768867
 30
0.0
 11
159.1986003432113
 21
105.3766000923114
 31
0.0
  0
LINE
  5
7F
330
1F
100
AcDbEntity
  8
1
  6
Continuous
 62
     7
100
AcDbLine
 10
153.1986003432113
 20
5.37660009231135
 30
0.0
 11
153.1986003432113
 21
-46.62339990768864
 31
0.0
  0
LINE
  5
80
330
1F
100
AcDbEntity
  8
1
  6
Continuous
 62
     7
100
AcDbLine
 10
137.1986003432113
 20
5.37660009231135
 30
0.0
 11
137.1986003432113
 21
-63.12339990768867
 31
0.0
  0
LINE
  5
81
330
1F
100
AcDbEntity
  8
1
  6
Continuous
 62
     7
100
AcDbLine
 10
155.1986003432113
 20
5.37660009231135
 30
0.0
 11
155.1986003432113
 21
-63.12339990768867
 31
0.0
  0
LINE
  5
82
330
1F
100
AcDbEntity
  8
1
  6
DOT_CENTER
 62
     2
100
AcDbLine
 10
146.1986003432113
 20
5.37660009231135
 30
0.0
 11
146.1986003432113
 21
-77.12339990768866
 31
0.0
  0
LINE
  5
83
330
1F
100
AcDbEntity
  8
1
  6
DOT_CENTER
 62
     2
100
AcDbLine
 10
159.1986003432113
 20
-63.12339990768867
 30
0.0
 11
137.1986003432113
 21
-63.12339990768867
 31
0.0
  0
LINE
  5
84
330
1F
100
AcDbEntity
  8
1
  6
Continuous
 62
     7
100
AcDbLine
 10
119.1986003432113
 20
105.3766000923114
 30
0.0
 11
119.1986003432113
 21
27.10010387925649
 31
0.0
  0
LINE
  5
85
330
1F
100
AcDbEntity
  8
1
  6
DOT_CENTER
 62
     2
100
AcDbLine
 10
119.1986003432113
 20
-94.62339990768866
 30
0.0
 11
135.1986003432113
 21
-94.62339990768866
 31
0.0
  0
LINE
  5
86
330
1F
100
AcDbEntity
  8
1
  6
DOT_CENTER
 62
     2
100
AcDbLine
 10
119.1986003432113
 20
105.3766000923114
 30
0.0
 11
135.1986003432113
 21
105.3766000923114
 31
0.0
  0
LINE
  5
87
330
1F
100
AcDbEntity
  8
1
  6
DOT_CENTER
 62
     2
100
AcDbLine
 10
145.1986003432113
 20
-58.17778590641503
 30
0.0
 11
145.1986003432113
 21
13.98807882745509
 31
0.0
  0
LINE
  5
88
330
1F
100
AcDbEntity
  8
1
  6
DOT_CENTER
 62
     2
100
AcDbLine
 10
135.9302363320646
 20
57.37660009231134
 30
0.0
 11
154.6092227685969
 21
57.37660009231134
 31
0.0
  0
LINE
  5
89
330
1F
100
AcDbEntity
  8
1
  6
DOT_CENTER
 62
     2
100
AcDbLine
 10
135.974028109067
 20
-46.62339990768865
 30
0.0
 11
154.2536929180181
 21
-46.62339990768865
 31
0.0
  0
LINE
  5
8A
330
1F
100
AcDbEntity
  8
1
  6
DOT_CENTER
 62
     2
100
AcDbLine
 10
-158.2239404691353
 20
105.3766000923114
 30
0.0
 11
-150.2239404691353
 21
105.3766000923114
 31
0.0
  0
LINE
  5
8B
330
1F
100
AcDbEntity
  8
1
  6
DOT_CENTER
 62
     2
100
AcDbLine
 10
-90.96248447059219
 20
-94.62339990768865
 30
0.0
 11
-90.96248447059219
 21
-98.53789930058733
 31
0.0
  0
LINE
  5
8C
330
1F
100
AcDbEntity
  8
1
  6
DOT_CENTER
 62
     2
100
AcDbLine
 10
-90.96248447059219
 20
-94.62339990768865
 30
0.0
 11
-86.99259169872323
 21
-94.62339990768865
 31
0.0
  0
LINE
  5
8D
330
1F
100
AcDbEntity
  8
1
  6
DOT_CENTER
 62
     2
100
AcDbLine
 10
-90.96248447059219
 20
105.3766000923114
 30
0.0
 11
-90.96248447059219
 21
-94.62339990768865
 31
0.0
  0
LINE
  5
8E
330
1F
100
AcDbEntity
  8
1
  6
DOT_CENTER
 62
     2
100
AcDbLine
 10
-99.22394046913536
 20
-94.62339990768865
 30
0.0
 11
-90.96248447059219
 21
-94.62339990768865
 31
0.0
  0
LINE
  5
8F
330
1F
100
AcDbEntity
  8
1
  6
DASHED
 62
     2
100
AcDbLine
 10
-99.22394046913536
 20
105.3766000923114
 30
0.0
 11
-99.22394046913536
 21
-94.62339990768865
 31
0.0
  0
LINE
  5
90
330
1F
100
AcDbEntity
  8
1
  6
DOT_CENTER
 62
     2
100
AcDbLine
 10
-100.7239404691354
 20
-94.62339990768865
 30
0.0
 11
-99.22394046913536
 21
-94.62339990768865
 31
0.0
  0
LINE
  5
91
330
1F
100
AcDbEntity
  8
1
  6
DASHED
 62
     2
100
AcDbLine
 10
-100.7239404691354
 20
105.3766000923114
 30
0.0
 11
-100.7239404691354
 21
-94.62339990768865
 31
0.0
  0
LINE
  5
92
330
1F
100
AcDbEntity
  8
1
  6
DOT_CENTER
 62
     2
100
AcDbLine
 10
-112.7239404691354
 20
-94.62339990768865
 30
0.0
 11
-100.7239404691354
 21
-94.62339990768865
 31
0.0
  0
LINE
  5
93
330
1F
100
AcDbEntity
  8
1
  6
DASHED
 62
     2
100
AcDbLine
 10
-112.7239404691354
 20
105.3766000923114
 30
0.0
 11
-112.7239404691354
 21
-94.62339990768865
 31
0.0
  0
LINE
  5
94
330
1F
100
AcDbEntity
  8
1
  6
DOT_CENTER
 62
     2
100
AcDbLine
 10
-158.2239404691353
 20
-94.62339990768865
 30
0.0
 11
-150.2239404691353
 21
-94.62339990768865
 31
0.0
  0
LINE
  5
95
330
1F
100
AcDbEntity
  8
1
  6
DASHED
 62
     2
100
AcDbLine
 10
-158.2239404691353
 20
105.3766000923114
 30
0.0
 11
-158.2239404691353
 21
-94.62339990768865
 31
0.0
  0
LINE
  5
96
330
1F
100
AcDbEntity
  8
1
  6
DOT_CENTER
 62
     2
100
AcDbLine
 10
-114.2239404691354
 20
-94.62339990768865
 30
0.0
 11
-112.7239404691354
 21
-94.62339990768865
 31
0.0
  0
LINE
  5
97
330
1F
100
AcDbEntity
  8
1
  6
Continuous
 62
     7
100
AcDbLine
 10
-114.2239404691354
 20
105.3766000923114
 30
0.0
 11
-114.2239404691354
 21
-94.62339990768865
 31
0.0
  0
LINE
  5
98
330
1F
100
AcDbEntity
  8
1
  6
DOT_CENTER
 62
     2
100
AcDbLine
 10
-159.7239404691353
 20
-94.62339990768865
 30
0.0
 11
-158.2239404691353
 21
-94.62339990768865
 31
0.0
  0
LINE
  5
99
330
1F
100
AcDbEntity
  8
1
  6
DOT_CENTER
 62
     2
100
AcDbLine
 10
-159.7239404691353
 20
105.3766000923114
 30
0.0
 11
-158.2239404691353
 21
105.3766000923114
 31
0.0
  0
LINE
  5
9A
330
1F
100
AcDbEntity
  8
1
  6
Continuous
 62
     7
100
AcDbLine
 10
-159.7239404691353
 20
105.3766000923114
 30
0.0
 11
-159.7239404691353
 21
-94.62339990768865
 31
0.0
  0
LINE
  5
9B
330
1F
100
AcDbEntity
  8
1
  6
DOT_CENTER
 62
     2
100
AcDbLine
 10
-163.3004741132993
 20
-94.62339990768865
 30
0.0
 11
-159.7239404691353
 21
-94.62339990768865
 31
0.0
  0
LINE
  5
9C
330
1F
100
AcDbEntity
  8
1
  6
DOT_CENTER
 62
     2
100
AcDbLine
 10
-160.8004741132993
 20
5.37660009231136
 30
0.0
 11
-86.99259169872323
 21
5.37660009231136
 31
0.0
  0
LINE
  5
9D
330
1F
100
AcDbEntity
  8
1
  6
DOT_CENTER
 62
     2
100
AcDbLine
 10
-163.3004741132993
 20
105.3766000923114
 30
0.0
 11
-159.7239404691353
 21
105.3766000923114
 31
0.0
  0
LINE
  5
9E
330
1F
100
AcDbEntity
  8
1
  6
Continuous
 62
     7
100
AcDbLine
 10
-154.7239404691353
 20
-61.52339990768865
 30
0.0
 11
-154.7239404691353
 21
72.27660009231136
 31
0.0
  0
LINE
  5
9F
330
1F
100
AcDbEntity
  8
1
  6
Continuous
 62
     7
100
AcDbLine
 10
-133.5239404691354
 20
72.27660009231136
 30
0.0
 11
-133.5239404691354
 21
-61.52339990768867
 31
0.0
  0
LINE
  5
A0
330
1F
100
AcDbEntity
  8
1
  6
DOT_CENTER
 62
     2
100
AcDbLine
 10
-144.1239404691353
 20
86.6599516412914
 30
0.0
 11
-144.1239404691353
 21
-74.19122552714772
 31
0.0
  0
LINE
  5
A1
330
1F
100
AcDbEntity
  8
1
  6
DOT_CENTER
 62
     2
100
AcDbLine
 10
-129.8729834434005
 20
72.27660009231136
 30
0.0
 11
-156.0261998521345
 21
72.27660009231136
 31
0.0
  0
LINE
  5
A2
330
1F
100
AcDbEntity
  8
1
  6
DOT_CENTER
 62
     2
100
AcDbLine
 10
-131.0797820028116
 20
-61.52339990768865
 30
0.0
 11
-133.5239404691354
 21
-61.52339990768867
 31
0.0
  0
LINE
  5
A3
330
1F
100
AcDbEntity
  8
1
  6
Continuous
 62
     7
100
AcDbLine
 10
-150.2239404691353
 20
80.94551005839128
 30
0.0
 11
-150.2239404691353
 21
-70.19230987376861
 31
0.0
  0
LINE
  5
A4
330
1F
100
AcDbEntity
  8
1
  6
DOT_CENTER
 62
     2
100
AcDbLine
 10
-133.5239404691354
 20
-61.52339990768867
 30
0.0
 11
-157.0261998521345
 21
-61.52339990768865
 31
0.0
  0
LINE
  5
A5
330
1F
100
AcDbEntity
  8
1
  6
Continuous
 62
     7
100
AcDbLine
 10
-14.17182954953819
 20
-42.23658379902567
 30
0.0
 11
-14.17182954953802
 21
-24.23658379902569
 31
0.0
  0
LINE
  5
A6
330
1F
100
AcDbEntity
  8
1
  6
Continuous
 62
     7
100
AcDbLine
 10
-14.17182954953802
 20
-24.23658379902569
 30
0.0
 11
-14.17182954953796
 21
-6.23658379902559
 31
0.0
  0
LINE
  5
A7
330
1F
100
AcDbEntity
  8
1
  6
Continuous
 62
     7
100
AcDbLine
 10
-4.17182954953819
 20
-40.23658379902557
 30
0.0
 11
12.82817045046186
 21
-40.23658379902587
 31
0.0
  0
LINE
  5
A8
330
1F
100
AcDbEntity
  8
1
  6
Continuous
 62
     7
100
AcDbLine
 10
-4.17182954953802
 20
-24.23658379902569
 30
0.0
 11
-14.17182954953802
 21
-24.23658379902569
 31
0.0
  0
LINE
  5
A9
330
1F
100
AcDbEntity
  8
1
  6
Continuous
 62
     7
100
AcDbLine
 10
-4.17182954953802
 20
-24.23658379902569
 30
0.0
 11
-4.17182954953819
 21
-40.23658379902557
 31
0.0
  0
LINE
  5
AA
330
1F
100
AcDbEntity
  8
1
  6
Continuous
 62
     7
100
AcDbLine
 10
30.82817045046204
 20
-46.23658379902567
 30
0.0
 11
-14.17182954953819
 21
-46.23658379902567
 31
0.0
  0
LINE
  5
AB
330
1F
100
AcDbEntity
  8
1
  6
PHANTOM
 62
     2
100
AcDbLine
 10
30.82817045046204
 20
-46.23658379902567
 30
0.0
 11
30.82817045046198
 21
-6.23658379902559
 31
0.0
  0
LINE
  5
AC
330
1F
100
AcDbEntity
  8
1
  6
Continuous
 62
     7
100
AcDbLine
 10
-14.17182954953819
 20
-42.23658379902567
 30
0.0
 11
-4.17182954953819
 21
-42.23658379902567
 31
0.0
  0
LINE
  5
AD
330
1F
100
AcDbEntity
  8
1
  6
Continuous
 62
     7
100
AcDbLine
 10
12.82817045046186
 20
-40.23658379902587
 30
0.0
 11
12.82817045046197
 21
-24.23658379902577
 31
0.0
  0
LINE
  5
AE
330
1F
100
AcDbEntity
  8
1
  6
Continuous
 62
     7
100
AcDbLine
 10
12.82817045046197
 20
-24.23658379902577
 30
0.0
 11
-4.17182954953802
 21
-24.23658379902569
 31
0.0
  0
LINE
  5
AF
330
1F
100
AcDbEntity
  8
1
  6
Continuous
 62
     7
100
AcDbLine
 10
-14.17182954953819
 20
-46.23658379902567
 30
0.0
 11
-14.17182954953819
 21
-42.23658379902567
 31
0.0
  0
LINE
  5
B0
330
1F
100
AcDbEntity
  8
1
  6
Continuous
 62
     7
100
AcDbLine
 10
-14.17182954953796
 20
-6.23658379902559
 30
0.0
 11
30.82817045046198
 21
-6.23658379902559
 31
0.0
  0
LINE
  5
B1
330
1F
100
AcDbEntity
  8
1
  6
PHANTOM
 62
     2
100
AcDbLine
 10
30.82817045046198
 20
-6.23658379902559
 30
0.0
 11
30.82817045046204
 21
-0.91103711276291
 31
0.0
  0
LINE
  5
B2
330
1F
100
AcDbEntity
  8
1
  6
PHANTOM
 62
     2
100
AcDbLine
 10
30.82817045046204
 20
-48.01231440612917
 30
0.0
 11
30.82817045046204
 21
-46.23658379902567
 31
0.0
  0
LINE
  5
B3
330
1F
100
AcDbEntity
  8
1
  6
Continuous
 62
     7
100
AcDbLine
 10
-4.17182954953819
 20
-40.23658379902557
 30
0.0
 11
-4.17182954953819
 21
-42.23658379902567
 31
0.0
  0
LINE
  5
B4
330
1F
100
AcDbEntity
  8
1
  6
DOT_CENTER
 62
     2
100
AcDbLine
 10
-3.25309177309521
 20
-33.23658379902579
 30
0.0
 11
-15.20754861848053
 21
-33.23658379902579
 31
0.0
  0
LINE
  5
B5
330
1F
100
AcDbEntity
  8
1
  6
DOT_CENTER
 62
     2
100
AcDbLine
 10
-5.14063759078766
 20
-32.23658379902566
 30
0.0
 11
14.52888853594412
 21
-32.23658379902566
 31
0.0
  0
LINE
  5
B6
330
1F
100
AcDbEntity
  8
1
  6
Continuous
 62
     2
100
AcDbLine
 10
-64.94387726174983
 20
41.63483326611977
 30
0.0
 11
-45.3805279572494
 21
-14.94216852815701
 31
0.0
  0
LINE
  5
B7
330
1F
100
AcDbEntity
  8
1
  6
Continuous
 62
     2
100
AcDbLine
 10
-64.94387726174983
 20
41.63483326611977
 30
0.0
 11
-1.40179836293646
 21
41.63483326611977
 31
0.0
  0
LINE
  5
B8
330
1F
100
AcDbEntity
  8
1
  6
Continuous
 62
     7
100
AcDbLine
 10
-19.17182954953756
 20
-21.03658379902568
 30
0.0
 11
-19.17182954953756
 21
10.76341620097422
 31
0.0
  0
LINE
  5
B9
330
1F
100
AcDbEntity
  8
1
  6
Continuous
 62
     7
100
AcDbLine
 10
-17.67182954953756
 20
-42.23658379902566
 30
0.0
 11
-17.67182954953756
 21
-44.73658379902567
 31
0.0
  0
LINE
  5
BA
330
1F
100
AcDbEntity
  8
1
  6
Continuous
 62
     7
100
AcDbLine
 10
-19.17182954953756
 20
-42.23658379902566
 30
0.0
 11
-19.17182954953756
 21
-21.03658379902568
 31
0.0
  0
LINE
  5
BB
330
1F
100
AcDbEntity
  8
1
  6
Continuous
 62
     7
100
AcDbLine
 10
-17.67182954953756
 20
-21.03658379902565
 30
0.0
 11
-17.67182954953756
 21
-42.23658379902566
 31
0.0
  0
LINE
  5
BC
330
1F
100
AcDbEntity
  8
1
  6
Continuous
 62
     7
100
AcDbLine
 10
-4.17182954953751
 20
-0.23658379902577
 30
0.0
 11
-4.17182954953751
 21
20.35611903867476
 31
0.0
  0
LINE
  5
BD
330
1F
100
AcDbEntity
  8
1
  6
Continuous
 62
     7
100
AcDbLine
 10
-2.67182954953751
 20
-0.73658379902577
 30
0.0
 11
-2.67182954953751
 21
20.35611903867476
 31
0.0
  0
LINE
  5
BE
330
1F
100
AcDbEntity
  8
1
  6
Continuous
 62
     7
100
AcDbLine
 10
-6.68269290167524
 20
-2.73658379902577
 30
0.0
 11
-4.67182954953762
 21
-2.73658379902579
 31
0.0
  0
LINE
  5
BF
330
1F
100
AcDbEntity
  8
1
  6
Continuous
 62
     7
100
AcDbLine
 10
-6.03108021525458
 20
-1.23658379902577
 30
0.0
 11
-5.17182954953751
 21
-1.23658379902577
 31
0.0
  0
LINE
  5
C0
330
1F
100
AcDbEntity
  8
1
  6
Continuous
 62
     7
100
AcDbLine
 10
-4.22294081010386
 20
10.37518763332042
 30
0.0
 11
-6.99700604154373
 21
0.02223524607678
 31
0.0
  0
LINE
  5
C1
330
1F
100
AcDbEntity
  8
1
  6
Continuous
 62
     7
100
AcDbLine
 10
-17.67182954953756
 20
12.26341620097423
 30
0.0
 11
-5.67182954953751
 21
12.26341620097423
 31
0.0
  0
LINE
  5
C2
330
1F
100
AcDbEntity
  8
1
  6
Continuous
 62
     7
100
AcDbLine
 10
-5.84047932281357
 20
10.13400667842295
 30
0.0
 11
-6.68372818919386
 21
6.98695906566666
 31
0.0
  0
LINE
  5
C3
330
1F
100
AcDbEntity
  8
1
  6
Continuous
 62
     7
100
AcDbLine
 10
-17.17182954953756
 20
10.76341620097422
 30
0.0
 11
-14.67182954953756
 21
10.76341620097422
 31
0.0
  0
LINE
  5
C4
330
1F
100
AcDbEntity
  8
1
  6
Continuous
 62
     7
100
AcDbLine
 10
-17.67182954953756
 20
-3.73658379902572
 30
0.0
 11
-17.67182954953756
 21
7.76341620097422
 31
0.0
  0
LINE
  5
C5
330
1F
100
AcDbEntity
  8
1
  6
Continuous
 62
     7
100
AcDbLine
 10
-15.67182954953756
 20
-6.23658379902555
 30
0.0
 11
-7.86590885829514
 21
-6.23658379902559
 31
0.0
  0
LINE
  5
C6
330
1F
100
AcDbEntity
  8
1
  6
Continuous
 62
     7
100
AcDbLine
 10
-14.67182954953756
 20
10.76341620097422
 30
0.0
 11
-9.58150566806103
 21
10.76341620097422
 31
0.0
  0
LINE
  5
C7
330
1F
100
AcDbEntity
  8
1
  6
Continuous
 62
     7
100
AcDbLine
 10
-17.67182954953756
 20
7.76341620097422
 30
0.0
 11
-17.67182954953756
 21
10.26341620097422
 31
0.0
  0
LINE
  5
C8
330
1F
100
AcDbEntity
  8
1
  6
Continuous
 62
     7
100
AcDbLine
 10
-9.58150566806103
 20
10.76341620097422
 30
0.0
 11
-6.32344223595805
 21
10.76341620097422
 31
0.0
  0
LINE
  5
C9
330
1F
100
AcDbEntity
  8
1
  6
Continuous
 62
     7
100
AcDbLine
 10
-6.68372818919386
 20
6.98695906566666
 30
0.0
 11
-8.61454455425326
 21
-0.21894570882073
 31
0.0
  0
LINE
  5
CA
330
1F
100
AcDbEntity
  8
1
  6
Continuous
 62
     7
100
AcDbLine
 10
-15.67182954953756
 20
-5.23658379902555
 30
0.0
 11
-7.86590885829514
 21
-5.23658379902555
 31
0.0
  0
LINE
  5
CB
330
1F
100
AcDbEntity
  8
1
  6
Continuous
 62
     7
100
AcDbLine
 10
-16.67182954953756
 20
-4.23658379902555
 30
0.0
 11
-16.67182954953756
 21
7.76341620097422
 31
0.0
  0
LINE
  5
CC
330
1F
100
AcDbEntity
  8
1
  6
Continuous
 62
     7
100
AcDbLine
 10
-14.67182954953756
 20
9.76341620097422
 30
0.0
 11
-9.58150566806103
 21
9.76341620097422
 31
0.0
  0
LINE
  5
CD
330
1F
100
AcDbEntity
  8
1
  6
Continuous
 62
     7
100
AcDbLine
 10
-7.64965401548295
 20
7.24577811076922
 30
0.0
 11
-9.58047038054235
 21
0.0398733362818
 31
0.0
  0
LINE
  5
CE
330
1F
100
AcDbEntity
  8
1
  6
Continuous
 62
     7
100
AcDbLine
 10
-46.17182954953807
 20
-37.73658379902578
 30
0.0
 11
-47.67182954953807
 21
-37.73658379902578
 31
0.0
  0
LINE
  5
CF
330
1F
100
AcDbEntity
  8
1
  6
Continuous
 62
     7
100
AcDbLine
 10
-47.67182954953807
 20
-37.73658379902578
 30
0.0
 11
-47.67182954953807
 21
-44.73658379902577
 31
0.0
  0
LINE
  5
D0
330
1F
100
AcDbEntity
  8
1
  6
Continuous
 62
     7
100
AcDbLine
 10
-45.17182954953807
 20
-47.23658379902577
 30
0.0
 11
-20.17182954953751
 21
-47.23658379902567
 31
0.0
  0
LINE
  5
D1
330
1F
100
AcDbEntity
  8
1
  6
Continuous
 62
     7
100
AcDbLine
 10
-17.67182954953756
 20
-21.03658379902565
 30
0.0
 11
-17.67182954953756
 21
-3.73658379902572
 31
0.0
  0
LINE
  5
D2
330
1F
100
AcDbEntity
  8
1
  6
Continuous
 62
     7
100
AcDbLine
 10
-20.17182954953751
 20
-45.73658379902567
 30
0.0
 11
-45.17182954953807
 21
-45.73658379902577
 31
0.0
  0
LINE
  5
D3
330
1F
100
AcDbEntity
  8
1
  6
Continuous
 62
     7
100
AcDbLine
 10
-46.17182954953807
 20
-44.73658379902577
 30
0.0
 11
-46.17182954953807
 21
-37.73658379902578
 31
0.0
  0
LINE
  5
D4
330
1F
100
AcDbEntity
  8
1
  6
Continuous
 62
     7
100
AcDbLine
 10
-19.17182954953756
 20
-44.73658379902567
 30
0.0
 11
-19.17182954953756
 21
-42.23658379902566
 31
0.0
  0
LINE
  5
D5
330
1F
100
AcDbEntity
  8
1
  6
Continuous
 62
     7
100
AcDbLine
 10
-17.67182954953756
 20
-42.23658379902566
 30
0.0
 11
-19.17182954953756
 21
-42.23658379902566
 31
0.0
  0
LINE
  5
D6
330
1F
100
AcDbEntity
  8
1
  6
Continuous
 62
     7
100
AcDbLine
 10
-19.17182954953756
 20
-21.03658379902568
 30
0.0
 11
-17.67182954953756
 21
-21.03658379902565
 31
0.0
  0
LINE
  5
D7
330
1F
100
AcDbEntity
  8
1
  6
Continuous
 62
     7
100
AcDbLine
 10
-19.17182954953756
 20
-42.48658379902567
 30
0.0
 11
-19.17182954953756
 21
-16.98658379902572
 31
0.0
  0
LINE
  5
D8
330
1F
100
AcDbEntity
  8
1
  6
DOT_CENTER
 62
     2
100
AcDbLine
 10
-42.67182954953756
 20
-21.13658379902568
 30
0.0
 11
-45.17182954953756
 21
-21.13658379902568
 31
0.0
  0
LINE
  5
D9
330
1F
100
AcDbEntity
  8
0
  6
DOT_CENTER
 62
     2
100
AcDbLine
 10
-33.17182954953756
 20
-42.53658379902569
 30
0.0
 11
-31.67182954953756
 21
-42.53658379902569
 31
0.0
  0
LINE
  5
DA
330
1F
100
AcDbEntity
  8
0
  6
DOT_CENTER
 62
     2
100
AcDbLine
 10
-28.17182954953756
 20
-18.13658379902568
 30
0.0
 11
-28.17182954953756
 21
-16.03658379902569
 31
0.0
  0
LINE
  5
DB
330
1F
100
AcDbEntity
  8
0
  6
DOT_CENTER
 62
     2
100
AcDbLine
 10
-31.17182954953756
 20
-18.13658379902568
 30
0.0
 11
-31.17182954953756
 21
-16.03658379902569
 31
0.0
  0
LINE
  5
DC
330
1F
100
AcDbEntity
  8
0
  6
DOT_CENTER
 62
     2
100
AcDbLine
 10
-40.17182954953756
 20
-45.53658379902569
 30
0.0
 11
-31.67182954953756
 21
-45.53658379902569
 31
0.0
  0
LINE
  5
DD
330
1F
100
AcDbEntity
  8
0
  6
DOT_CENTER
 62
     2
100
AcDbLine
 10
-42.67182954953756
 20
-45.43658379902569
 30
0.0
 11
-45.17182954953756
 21
-45.43658379902569
 31
0.0
  0
LINE
  5
DE
330
1F
100
AcDbEntity
  8
0
  6
DOT_CENTER
 62
     2
100
AcDbLine
 10
-40.37182954953755
 20
-45.43658379902569
 30
0.0
 11
-42.67182954953756
 21
-45.43658379902569
 31
0.0
  0
LINE
  5
DF
330
1F
100
AcDbEntity
  8
0
  6
DOT_CENTER
 62
     2
100
AcDbLine
 10
-22.17182954953756
 20
-45.43658379902569
 30
0.0
 11
-33.17182954953756
 21
-45.43658379902569
 31
0.0
  0
LINE
  5
E0
330
1F
100
AcDbEntity
  8
0
  6
Continuous
 62
     7
100
AcDbLine
 10
-19.17182954953756
 20
-17.93658379902568
 30
0.0
 11
-19.17182954953756
 21
-39.73658379902569
 31
0.0
  0
LINE
  5
E1
330
1F
100
AcDbEntity
  8
0
  6
DOT_CENTER
 62
     2
100
AcDbLine
 10
-19.67182954953756
 20
-18.13658379902568
 30
0.0
 11
-19.67182954953756
 21
-20.63658379902568
 31
0.0
  0
LINE
  5
E2
330
1F
100
AcDbEntity
  8
0
  6
DOT_CENTER
 62
     2
100
AcDbLine
 10
-19.17182954953756
 20
-42.93658379902569
 30
0.0
 11
-22.17182954953756
 21
-42.93658379902569
 31
0.0
  0
LINE
  5
E3
330
1F
100
AcDbEntity
  8
0
  6
DOT_CENTER
 62
     2
100
AcDbLine
 10
-40.17182954953756
 20
-42.53658379902569
 30
0.0
 11
-33.17182954953756
 21
-42.53658379902569
 31
0.0
  0
LINE
  5
E4
330
1F
100
AcDbEntity
  8
0
  6
DOT_CENTER
 62
     2
100
AcDbLine
 10
-40.37182954953755
 20
-42.13658379902568
 30
0.0
 11
-33.17182954953756
 21
-42.13658379902568
 31
0.0
  0
LINE
  5
E5
330
1F
100
AcDbEntity
  8
0
  6
DOT_CENTER
 62
     2
100
AcDbLine
 10
-21.67182954953756
 20
-21.13658379902568
 30
0.0
 11
-21.67182954953756
 21
-42.93658379902569
 31
0.0
  0
LINE
  5
E6
330
1F
100
AcDbEntity
  8
0
  6
DOT_CENTER
 62
     2
100
AcDbLine
 10
-22.17182954953756
 20
-42.93658379902569
 30
0.0
 11
-22.17182954953756
 21
-45.43658379902569
 31
0.0
  0
LINE
  5
E7
330
1F
100
AcDbEntity
  8
0
  6
DOT_CENTER
 62
     2
100
AcDbLine
 10
-28.17182954953756
 20
-37.37801222752568
 30
0.0
 11
-31.17182954953756
 21
-37.37801222752568
 31
0.0
  0
LINE
  5
E8
330
1F
100
AcDbEntity
  8
0
  6
DOT_CENTER
 62
     2
100
AcDbLine
 10
-28.17182954953756
 20
-42.03658379902569
 30
0.0
 11
-28.17182954953756
 21
-18.13658379902568
 31
0.0
  0
LINE
  5
E9
330
1F
100
AcDbEntity
  8
DEFAULT_2
  6
DOT_CENTER
 62
     2
100
AcDbLine
 10
-28.17182954953756
 20
-34.23658379902567
 30
0.0
 11
-31.17182954953756
 21
-34.23658379902567
 31
0.0
  0
LINE
  5
EA
330
1F
100
AcDbEntity
  8
0
  6
DOT_CENTER
 62
     2
100
AcDbLine
 10
-31.17182954953756
 20
-33.53658379902569
 30
0.0
 11
-28.17182954953756
 21
-33.53658379902569
 31
0.0
  0
LINE
  5
EB
330
1F
100
AcDbEntity
  8
0
  6
DOT_CENTER
 62
     2
100
AcDbLine
 10
-31.17182954953756
 20
-42.03658379902569
 30
0.0
 11
-31.17182954953756
 21
-18.13658379902568
 31
0.0
  0
LINE
  5
EC
330
1F
100
AcDbEntity
  8
DEFAULT_1
  6
DOT_CENTER
 62
     2
100
AcDbLine
 10
-26.17182954953756
 20
-31.73658379902567
 30
0.0
 11
-33.17182954953756
 21
-31.73658379902567
 31
0.0
  0
LINE
  5
ED
330
1F
100
AcDbEntity
  8
0
  6
DOT_CENTER
 62
     2
100
AcDbLine
 10
-33.17182954953756
 20
-45.53658379902569
 30
0.0
 11
-33.17182954953756
 21
-45.43658379902569
 31
0.0
  0
LINE
  5
EE
330
1F
100
AcDbEntity
  8
0
  6
DOT_CENTER
 62
     2
100
AcDbLine
 10
-33.17182954953756
 20
-45.43658379902569
 30
0.0
 11
-33.17182954953756
 21
-42.13658379902568
 31
0.0
  0
LINE
  5
EF
330
1F
100
AcDbEntity
  8
0
  6
DOT_CENTER
 62
     2
100
AcDbLine
 10
-31.17182954953756
 20
-29.93658379902569
 30
0.0
 11
-28.17182954953756
 21
-29.93658379902569
 31
0.0
  0
LINE
  5
F0
330
1F
100
AcDbEntity
  8
DEFAULT_2
  6
DOT_CENTER
 62
     2
100
AcDbLine
 10
-28.17182954953756
 20
-29.23658379902567
 30
0.0
 11
-31.17182954953756
 21
-29.23658379902567
 31
0.0
  0
LINE
  5
F1
330
1F
100
AcDbEntity
  8
0
  6
DOT_CENTER
 62
     2
100
AcDbLine
 10
-28.17182954953756
 20
-27.23658379902567
 30
0.0
 11
-31.17182954953756
 21
-27.23658379902567
 31
0.0
  0
LINE
  5
F2
330
1F
100
AcDbEntity
  8
0
  6
DOT_CENTER
 62
     2
100
AcDbLine
 10
-40.17182954953756
 20
-42.53658379902569
 30
0.0
 11
-40.17182954953756
 21
-45.53658379902569
 31
0.0
  0
LINE
  5
F3
330
1F
100
AcDbEntity
  8
0
  6
DOT_CENTER
 62
     2
100
AcDbLine
 10
-40.37182954953755
 20
-45.43658379902569
 30
0.0
 11
-40.37182954953755
 21
-42.13658379902568
 31
0.0
  0
LINE
  5
F4
330
1F
100
AcDbEntity
  8
0
  6
DOT_CENTER
 62
     2
100
AcDbLine
 10
-28.17182954953756
 20
-23.09515537042568
 30
0.0
 11
-31.17182954953756
 21
-23.09515537042568
 31
0.0
  0
LINE
  5
F5
330
1F
100
AcDbEntity
  8
0
  6
DOT_CENTER
 62
     2
100
AcDbLine
 10
-19.17182954953756
 20
-21.13658379902568
 30
0.0
 11
-42.67182954953756
 21
-21.13658379902568
 31
0.0
  0
LINE
  5
F6
330
1F
100
AcDbEntity
  8
0
  6
DOT_CENTER
 62
     2
100
AcDbLine
 10
-19.67182954953756
 20
-20.63658379902568
 30
0.0
 11
-42.17182954953756
 21
-20.63658379902568
 31
0.0
  0
LINE
  5
F7
330
1F
100
AcDbEntity
  8
0
  6
DOT_CENTER
 62
     2
100
AcDbLine
 10
-42.67182954953756
 20
-21.13658379902568
 30
0.0
 11
-42.67182954953756
 21
-45.43658379902569
 31
0.0
  0
LINE
  5
F8
330
1F
100
AcDbEntity
  8
0
  6
DOT_CENTER
 62
     2
100
AcDbLine
 10
-19.67182954953756
 20
-18.13658379902568
 30
0.0
 11
-42.17182954953756
 21
-18.13658379902568
 31
0.0
  0
LINE
  5
F9
330
1F
100
AcDbEntity
  8
0
  6
DOT_CENTER
 62
     2
100
AcDbLine
 10
-45.17182954953756
 20
-21.13658379902568
 30
0.0
 11
-45.17182954953756
 21
-45.43658379902569
 31
0.0
  0
LINE
  5
FA
330
1F
100
AcDbEntity
  8
0
  6
DOT_CENTER
 62
     2
100
AcDbLine
 10
-31.17182954953756
 20
-16.03658379902569
 30
0.0
 11
-28.17182954953756
 21
-16.03658379902569
 31
0.0
  0
LINE
  5
FB
330
1F
100
AcDbEntity
  8
1
  6
DASHED
 62
     2
100
AcDbLine
 10
-150.2239404691353
 20
-70.19230987376861
 30
0.0
 11
-150.2239404691353
 21
-94.62339990768865
 31
0.0
  0
LINE
  5
FC
330
1F
100
AcDbEntity
  8
1
  6
DOT_CENTER
 62
     2
100
AcDbLine
 10
-150.2239404691353
 20
-94.62339990768865
 30
0.0
 11
-114.2239404691354
 21
-94.62339990768865
 31
0.0
  0
LINE
  5
FD
330
1F
100
AcDbEntity
  8
1
  6
DASHED
 62
     2
100
AcDbLine
 10
-150.2239404691353
 20
80.94551005839128
 30
0.0
 11
-150.2239404691353
 21
105.3766000923114
 31
0.0
  0
LINE
  5
FE
330
1F
100
AcDbEntity
  8
1
  6
DOT_CENTER
 62
     2
100
AcDbLine
 10
-150.2239404691353
 20
105.3766000923114
 30
0.0
 11
-87.5524182664443
 21
105.3766000923114
 31
0.0
  0
LINE
  5
FF
330
1F
100
AcDbEntity
  8
1
  6
Continuous
 62
     2
100
AcDbLine
 10
-45.3805279572494
 20
-14.94216852815701
 30
0.0
 11
-43.93007920155515
 21
-19.13685117559825
 31
0.0
  0
ARC
  5
100
330
1F
100
AcDbEntity
  8
1
  6
Continuous
 62
     7
100
AcDbCircle
 10
146.1986003432113
 20
73.87660009231135
 30
0.0
 40
9.0
100
AcDbArc
 50
90.0
 51
180.0
  0
ARC
  5
101
330
1F
100
AcDbEntity
  8
1
  6
Continuous
 62
     7
100
AcDbCircle
 10
145.1986003432113
 20
57.37660009231134
 30
0.0
 40
8.000000000000007
100
AcDbArc
 50
90.0
 51
180.0
  0
ARC
  5
102
330
1F
100
AcDbEntity
  8
1
  6
Continuous
 62
     7
100
AcDbCircle
 10
145.1986003432113
 20
-46.62339990768865
 30
0.0
 40
8.0
100
AcDbArc
 50
270.0
 51
0.00000000000005
  0
ARC
  5
103
330
1F
100
AcDbEntity
  8
1
  6
Continuous
 62
     7
100
AcDbCircle
 10
146.1986003432113
 20
-63.12339990768867
 30
0.0
 40
8.999999999999979
100
AcDbArc
 50
270.0
 51
0.0
  0
ARC
  5
104
330
1F
100
AcDbEntity
  8
1
  6
Continuous
 62
     7
100
AcDbCircle
 10
146.1986003432113
 20
73.87660009231135
 30
0.0
 40
9.0
100
AcDbArc
 50
0.0
 51
90.0
  0
ARC
  5
105
330
1F
100
AcDbEntity
  8
1
  6
Continuous
 62
     7
100
AcDbCircle
 10
146.1986003432113
 20
-63.12339990768867
 30
0.0
 40
9.0
100
AcDbArc
 50
180.0
 51
270.0
  0
ARC
  5
106
330
1F
100
AcDbEntity
  8
1
  6
Continuous
 62
     7
100
AcDbCircle
 10
145.1986003432113
 20
57.37660009231134
 30
0.0
 40
8.0
100
AcDbArc
 50
0.0
 51
90.0
  0
ARC
  5
107
330
1F
100
AcDbEntity
  8
1
  6
Continuous
 62
     7
100
AcDbCircle
 10
145.1986003432113
 20
-46.62339990768865
 30
0.0
 40
8.0
100
AcDbArc
 50
180.0
 51
270.0
  0
ARC
  5
108
330
1F
100
AcDbEntity
  8
1
  6
Continuous
 62
     7
100
AcDbCircle
 10
-15.42182954953762
 20
-3.98658379902563
 30
0.0
 40
2.263846284534285
100
AcDbArc
 50
173.6598082540921
 51
263.6598082540914
  0
ARC
  5
109
330
1F
100
AcDbEntity
  8
1
  6
Continuous
 62
     7
100
AcDbCircle
 10
-7.90816657103153
 20
-4.38658379902565
 30
0.0
 40
1.85048256254564
100
AcDbArc
 50
271.3085230446071
 51
72.12038659088873
  0
ARC
  5
10A
330
1F
100
AcDbEntity
  8
1
  6
Continuous
 62
     7
100
AcDbCircle
 10
-14.67182954953756
 20
7.76341620097422
 30
0.0
 40
3.0
100
AcDbArc
 50
90.0
 51
180.0
  0
ARC
  5
10B
330
1F
100
AcDbEntity
  8
1
  6
Continuous
 62
     7
100
AcDbCircle
 10
-9.58150566806103
 20
7.76341620097422
 30
0.0
 40
2.999999999999965
100
AcDbArc
 50
344.9999999999998
 51
90.0
  0
ARC
  5
10C
330
1F
100
AcDbEntity
  8
1
  6
Continuous
 62
     7
100
AcDbCircle
 10
-15.67182954953756
 20
-4.23658379902555
 30
0.0
 40
1.0
100
AcDbArc
 50
180.0
 51
270.0
  0
ARC
  5
10D
330
1F
100
AcDbEntity
  8
1
  6
Continuous
 62
     7
100
AcDbCircle
 10
-14.67182954953756
 20
7.76341620097422
 30
0.0
 40
2.0
100
AcDbArc
 50
90.0
 51
180.0
  0
ARC
  5
10E
330
1F
100
AcDbEntity
  8
1
  6
Continuous
 62
     7
100
AcDbCircle
 10
-9.58150566806103
 20
7.76341620097422
 30
0.0
 40
1.999999999999931
100
AcDbArc
 50
345.0000000000006
 51
90.0
  0
ARC
  5
10F
330
1F
100
AcDbEntity
  8
1
  6
Continuous
 62
     7
100
AcDbCircle
 10
-7.90816657103153
 20
-4.38658379902565
 30
0.0
 40
0.8510497719202632
100
AcDbArc
 50
272.8461139136643
 51
73.65797745995073
  0
ARC
  5
110
330
1F
100
AcDbEntity
  8
0
  6
DOT_CENTER
 62
     2
100
AcDbCircle
 10
-31.67182954953756
 20
-42.03658379902569
 30
0.0
 40
3.5
100
AcDbArc
 50
270.0
 51
283.7291326754135
  0
ARC
  5
111
330
1F
100
AcDbEntity
  8
0
  6
DOT_CENTER
 62
     2
100
AcDbCircle
 10
-31.67182954953756
 20
-42.03658379902569
 30
0.0
 40
0.5
100
AcDbArc
 50
270.0
 51
0.0
  0
ARC
  5
112
330
1F
100
AcDbEntity
  8
0
  6
DOT_CENTER
 62
     2
100
AcDbCircle
 10
-31.67182954953756
 20
-42.03658379902569
 30
0.0
 40
3.500000000000011
100
AcDbArc
 50
283.7291326754135
 51
0.0
  0
ARC
  5
113
330
1F
100
AcDbEntity
  8
0
  6
DOT_CENTER
 62
     2
100
AcDbCircle
 10
-42.17182954953756
 20
-21.13658379902568
 30
0.0
 40
0.5
100
AcDbArc
 50
90.0
 51
180.0
  0
ARC
  5
114
330
1F
100
AcDbEntity
  8
0
  6
DOT_CENTER
 62
     2
100
AcDbCircle
 10
-42.17182954953756
 20
-21.13658379902568
 30
0.0
 40
3.0
100
AcDbArc
 50
90.0
 51
180.0
  0
CIRCLE
  5
115
330
1F
100
AcDbEntity
  8
1
  6
DOT_CENTER
 62
     2
100
AcDbCircle
 10
143.5486003432113
 20
-63.12339990768867
 30
0.0
 40
6.349999999999994
  0
CIRCLE
  5
116
330
1F
100
AcDbEntity
  8
1
  6
Continuous
 62
     7
100
AcDbCircle
 10
146.1986003432113
 20
-65.62339990768865
 30
0.0
 40
1.5
  0
CIRCLE
  5
117
330
1F
100
AcDbEntity
  8
1
  6
Continuous
 62
     7
100
AcDbCircle
 10
146.1986003432113
 20
76.37660009231135
 30
0.0
 40
1.5
  0
SPLINE
  5
118
330
1F
100
AcDbEntity
  8
1
  6
Continuous
 62
     2
100
AcDbSpline
210
0.0
220
0.0
230
1.0
 70
     8
 71
     3
 72
    12
 73
     8
 74
     6
 42
0.0000000001
 43
0.0000000001
 44
0.00000001
 40
0.0
 40
0.0
 40
0.0
 40
0.0
 40
0.2775291599796219
 40
0.5641738536599449
 40
0.8992522958633982
 40
1.297504019331623
 40
1.680834346735578
 40
1.680834346735578
 40
1.680834346735578
 40
1.680834346735578
 10
-4.171829549537506
 20
20.35611903867476
 30
0.0
 10
-4.083885675586529
 20
20.42531874544583
 30
0.0
 10
-3.90510938311928
 20
20.56599104540896
 30
0.0
 10
-3.703961799504166
 20
20.20124306671394
 30
0.0
 10
-3.334378156196024
 20
20.36539527482195
 30
0.0
 10
-3.015530340770292
 20
20.63017746862007
 30
0.0
 10
-2.784928988850899
 20
20.44630170789338
 30
0.0
 10
-2.671829549537506
 20
20.35611903867476
 30
0.0
 11
-4.171829549537506
 21
20.35611903867476
 31
0.0
 11
-3.920721609995735
 21
20.47430210572787
 31
0.0
 11
-3.696470341945669
 21
20.29576205645874
 31
0.0
 11
-3.369028668034914
 21
20.36689230751985
 31
0.0
 11
-3.009340420154448
 21
20.5378566300614
 31
0.0
 11
-2.671829549537506
 21
20.35611903867476
 31
0.0
  0
ARC
  5
119
330
1F
100
AcDbEntity
  8
1
  6
Continuous
 62
     7
100
AcDbCircle
 10
-144.1239404691353
 20
72.27660009231136
 30
0.0
 40
10.59999999999991
100
AcDbArc
 50
0.0
 51
90.0
  0
ARC
  5
11A
330
1F
100
AcDbEntity
  8
1
  6
Continuous
 62
     7
100
AcDbCircle
 10
-144.1239404691353
 20
72.27660009231136
 30
0.0
 40
10.59999999999999
100
AcDbArc
 50
125.1326721973889
 51
180.0
  0
ARC
  5
11B
330
1F
100
AcDbEntity
  8
1
  6
Continuous
 62
     7
100
AcDbCircle
 10
-144.1239404691353
 20
-61.52339990768865
 30
0.0
 40
10.6
100
AcDbArc
 50
270.0
 51
359.9999999999999
  0
ARC
  5
11C
330
1F
100
AcDbEntity
  8
1
  6
Continuous
 62
     7
100
AcDbCircle
 10
-144.1239404691353
 20
-61.52339990768865
 30
0.0
 40
10.60000000000002
100
AcDbArc
 50
234.8673278026112
 51
270.0
  0
ARC
  5
11D
330
1F
100
AcDbEntity
  8
1
  6
Continuous
 62
     7
100
AcDbCircle
 10
-17.67182954953756
 20
10.76341620097422
 30
0.0
 40
1.500000000000011
100
AcDbArc
 50
90.0
 51
180.0
  0
ARC
  5
11E
330
1F
100
AcDbEntity
  8
1
  6
Continuous
 62
     7
100
AcDbCircle
 10
-17.17182954953756
 20
10.26341620097422
 30
0.0
 40
0.5
100
AcDbArc
 50
90.0
 51
180.0
  0
ARC
  5
11F
330
1F
100
AcDbEntity
  8
1
  6
Continuous
 62
     7
100
AcDbCircle
 10
-4.67182954953751
 20
-0.73658379902577
 30
0.0
 40
2.000000000000014
100
AcDbArc
 50
269.9999999999968
 51
0.0
  0
ARC
  5
120
330
1F
100
AcDbEntity
  8
1
  6
Continuous
 62
     7
100
AcDbCircle
 10
-6.68269290167524
 20
-0.73658379902577
 30
0.0
 40
1.999999999999962
100
AcDbArc
 50
250.8118635462783
 51
270.0
  0
ARC
  5
121
330
1F
100
AcDbEntity
  8
1
  6
Continuous
 62
     7
100
AcDbCircle
 10
-5.17182954953751
 20
-0.23658379902577
 30
0.0
 40
1.0
100
AcDbArc
 50
270.0
 51
0.0
  0
ARC
  5
122
330
1F
100
AcDbEntity
  8
1
  6
Continuous
 62
     7
100
AcDbCircle
 10
-6.03108021525458
 20
-0.23658379902577
 30
0.0
 40
1.000000000000089
100
AcDbArc
 50
164.9999999999993
 51
270.0
  0
ARC
  5
123
330
1F
100
AcDbEntity
  8
1
  6
Continuous
 62
     7
100
AcDbCircle
 10
-5.67182954953751
 20
10.76341620097422
 30
0.0
 40
1.500000000000043
100
AcDbArc
 50
344.9999999999997
 51
90.0
  0
ARC
  5
124
330
1F
100
AcDbEntity
  8
1
  6
Continuous
 62
     7
100
AcDbCircle
 10
-6.32344223595805
 20
10.26341620097422
 30
0.0
 40
0.4999999999999595
100
AcDbArc
 50
344.9999999999976
 51
90.0
  0
ARC
  5
125
330
1F
100
AcDbEntity
  8
1
  6
Continuous
 62
     7
100
AcDbCircle
 10
-6.68269290167524
 20
-0.73658379902577
 30
0.0
 40
1.999999999999885
100
AcDbArc
 50
164.9999999999992
 51
250.8118635462783
  0
ARC
  5
126
330
1F
100
AcDbEntity
  8
1
  6
Continuous
 62
     7
100
AcDbCircle
 10
-6.68269290167524
 20
-0.73658379902577
 30
0.0
 40
2.999999999999914
100
AcDbArc
 50
164.9999999999993
 51
250.8118635462781
  0
ARC
  5
127
330
1F
100
AcDbEntity
  8
1
  6
Continuous
 62
     7
100
AcDbCircle
 10
-45.17182954953807
 20
-44.73658379902577
 30
0.0
 40
1.0
100
AcDbArc
 50
180.0
 51
270.0
  0
ARC
  5
128
330
1F
100
AcDbEntity
  8
1
  6
Continuous
 62
     7
100
AcDbCircle
 10
-45.17182954953807
 20
-44.73658379902577
 30
0.0
 40
2.5
100
AcDbArc
 50
180.0
 51
270.0
  0
ARC
  5
129
330
1F
100
AcDbEntity
  8
1
  6
Continuous
 62
     7
100
AcDbCircle
 10
-20.17182954953751
 20
-44.73658379902567
 30
0.0
 40
2.5
100
AcDbArc
 50
270.0
 51
0.0
  0
ARC
  5
12A
330
1F
100
AcDbEntity
  8
1
  6
Continuous
 62
     7
100
AcDbCircle
 10
-20.17182954953751
 20
-44.73658379902567
 30
0.0
 40
1.0
100
AcDbArc
 50
270.0
 51
0.0
  0
ARC
  5
12B
330
1F
100
AcDbEntity
  8
1
  6
Continuous
 62
     7
100
AcDbCircle
 10
-144.1239404691353
 20
72.27660009231136
 30
0.0
 40
10.59999999999999
100
AcDbArc
 50
90.0
 51
125.1326721973889
  0
ARC
  5
12C
330
1F
100
AcDbEntity
  8
1
  6
Continuous
 62
     7
100
AcDbCircle
 10
-144.1239404691353
 20
-61.52339990768865
 30
0.0
 40
10.59999999999999
100
AcDbArc
 50
180.0
 51
234.8673278026112
  0
MTEXT
  5
150
330
1F
100
AcDbEntity
  8
1
 62
     3
100
AcDbMText
 10
-70.5857305357902
 20
-71.7574994986811
 30
0.0
 40
3.5
 41
0.0
 71
     4
 72
     1
  1
template\Psteel frame
  7
CONVERTER_11
 73
     1
 44
1.32052821128451
  0
MTEXT
  5
151
330
1F
100
AcDbEntity
  8
1
 62
     3
100
AcDbMText
 10
-5.34445011864071
 20
-72.8598745247702
 30
0.0
 40
3.5
 41
0.0
 71
     4
 72
     1
  1
template\Pdoor panel
  7
CONVERTER_11
 73
     1
 44
1.32052821128451
  0
MTEXT
  5
152
330
1F
100
AcDbEntity
  8
1
 62
     2
100
AcDbMText
 10
-59.06926894836904
 20
41.63483326611977
 30
0.0
 40
3.5
 41
0.0
 71
     4
 72
     1
  1
receiver\PTECTUS TE240-3D SZ
  7
CONVERTER_11
 73
     1
 44
1.32052821128451
  0
MTEXT
  5
153
330
1F
100
AcDbEntity
  8
1
 62
     3
100
AcDbMText
 10
171.930781006064
 20
-129.725422560464
 30
0.0
 40
3.5
 41
0.0
 71
     5
 72
     1
  1
TECTUS TE240-3D
  7
CONVERTER_11
 73
     1
 44
1.32052821128451
  0
DIMENSION
  5
15E
330
1F
100
AcDbEntity
  8
1
100
AcDbDimension
  2
*D1
 10
177.3887512679591
 20
76.37660009231135
 30
0.0
 11
173.6387512679591
 21
3.37388654899802
 31
0.0
 70
    32
  1
<>
 71
     5
 42
-1.0
 53
90.0
  3
ME10_DIM_10
100
AcDbAlignedDimension
 13
143.9486003432113
 23
-65.62339990768865
 33
0.0
 14
143.9486003432113
 24
76.37660009231135
 34
0.0
 50
90.0
100
AcDbRotatedDimension
  0
DIMENSION
  5
16A
330
1F
100
AcDbEntity
  8
1
100
AcDbDimension
  2
*D2
 10
47.9119338369392
 20
-114.622960427562
 30
0.0
 11
26.4544458374908
 21
-110.872960427562
 31
0.0
 70
    32
  1
<>
 71
     5
 42
-1.0
 53
0.00013888888889
  3
ME10_DIM_11
100
AcDbAlignedDimension
 13
74.9119338369392
 23
-54.62339990768866
 33
0.0
 14
47.9119338369392
 24
-72.12339990768865
 34
0.0
100
AcDbRotatedDimension
  0
DIMENSION
  5
176
330
1F
100
AcDbEntity
  8
1
100
AcDbDimension
  2
*D3
 10
57.9119338369392
 20
-103.785670014645
 30
0.0
 11
26.3934455009294
 21
-100.035670014645
 31
0.0
 70
    32
  1
10mm (0.394
 71
     5
 42
-1.0
 53
0.00013888888889
  3
ME10_DIM_12
100
AcDbAlignedDimension
 13
47.9119338369392
 23
-94.62339990768866
 33
0.0
 14
57.9119338369392
 24
-72.12339990768865
 34
0.0
100
AcDbRotatedDimension
  0
DIMENSION
  5
181
330
1F
100
AcDbEntity
  8
1
100
AcDbDimension
  2
*D4
 10
168.769916730974
 20
65.37660009231134
 30
0.0
 11
165.019916730974
 21
3.6038703627465
 31
0.0
 70
    32
  1
<>
 71
     5
 42
-1.0
 53
90.0
  3
ME10_DIM_13
100
AcDbAlignedDimension
 13
145.1986003432113
 23
-54.62339990768865
 33
0.0
 14
145.1986003432113
 24
65.37660009231135
 34
0.0
 50
90.0
100
AcDbRotatedDimension
  0
DIMENSION
  5
18C
330
1F
100
AcDbEntity
  8
1
100
AcDbDimension
  2
*D5
 10
187.164495411211
 20
-72.12339990768865
 30
0.0
 11
183.414495411211
 21
6.25238840697301
 31
0.0
 70
    32
  1
<>
 71
     5
 42
-1.0
 53
90.0
  3
ME10_DIM_14
100
AcDbAlignedDimension
 13
146.1986003432113
 23
82.87660009231135
 33
0.0
 14
146.1986003432113
 24
-72.12339990768865
 34
0.0
 50
90.0
100
AcDbRotatedDimension
  0
DIMENSION
  5
198
330
1F
100
AcDbEntity
  8
1
100
AcDbDimension
  2
*D6
 10
153.1986003432113
 20
18.3048182481224
 30
0.0
 11
115.7020811065338
 21
22.0548182481224
 31
0.0
 70
    32
  1
16mm (0.630
 71
     5
 42
-1.0
 53
0.00013888888889
  3
ME10_DIM_15
100
AcDbAlignedDimension
 13
137.1986003432113
 23
5.37660009231135
 33
0.0
 14
153.1986003432113
 24
-46.62339990768864
 34
0.0
100
AcDbRotatedDimension
  0
DIMENSION
  5
1A4
330
1F
100
AcDbEntity
  8
1
100
AcDbDimension
  2
*D7
 10
155.1986003432113
 20
-117.781584343866
 30
0.0
 11
177.890868300829
 21
-114.031584343866
 31
0.0
 70
    32
  1
18mm (0.709
 71
     5
 42
-1.0
 53
0.00013888888889
  3
ME10_DIM_16
100
AcDbAlignedDimension
 13
137.1986003432113
 23
-63.12339990768867
 33
0.0
 14
155.1986003432113
 24
-63.12339990768867
 34
0.0
100
AcDbRotatedDimension
  0
DIMENSION
  5
1B1
330
1F
100
AcDbEntity
  8
1
100
AcDbDimension
  2
*D8
 10
159.1986003432113
 20
-105.781584343866
 30
0.0
 11
177.590539035212
 21
-102.031584343866
 31
0.0
 70
    32
  1
4mm (0.157
 71
     5
 42
-1.0
 53
0.00013888888889
  3
ME10_DIM_17
100
AcDbAlignedDimension
 13
155.1986003432113
 23
-63.12339990768867
 33
0.0
 14
159.1986003432113
 24
-94.62339990768866
 34
0.0
100
AcDbRotatedDimension
  0
DIMENSION
  5
1BC
330
1F
100
AcDbEntity
  8
1
100
AcDbDimension
  2
*D9
 10
-168.6711947349575
 20
82.87660009231135
 30
0.0
 11
-172.4211947349575
 21
4.6137015883392
 31
0.0
 70
    32
  1
<>
 71
     5
 42
-1.0
 53
90.0
  3
ME10_DIM_18
100
AcDbAlignedDimension
 13
-144.1239404691353
 23
-72.12339990768865
 33
0.0
 14
-144.1239404691353
 24
82.87660009231135
 34
0.0
 50
90.0
100
AcDbRotatedDimension
  0
DIMENSION
  5
1C8
330
1F
100
AcDbEntity
  8
1
100
AcDbDimension
  2
*D10
 10
-154.7239404691353
 20
-119.257398602054
 30
0.0
 11
-180.16245248489
 21
-115.507398602054
 31
0.0
 70
    32
  1
21.2mm (0.835
 71
     5
 42
-1.0
 53
0.00013888888889
  3
ME10_DIM_19
100
AcDbAlignedDimension
 13
-133.5239404691354
 23
-61.52339990768867
 33
0.0
 14
-154.7239404691353
 24
-61.52339990768865
 34
0.0
100
AcDbRotatedDimension
  0
DIMENSION
  5
1D4
330
1F
100
AcDbEntity
  8
1
100
AcDbDimension
  2
*D11
 10
-17.67182954953756
 20
-57.8738883886215
 30
0.0
 11
4.3028870833056
 21
-54.1238883886215
 31
0.0
 70
    32
  1
<>
 71
     5
 42
-1.0
 53
0.00013888888889
  3
ME10_DIM_20
100
AcDbAlignedDimension
 13
-45.17182954953756
 23
-45.43658379902569
 33
0.0
 14
-17.67182954953756
 24
-42.23658379902566
 34
0.0
100
AcDbRotatedDimension
  0
DIMENSION
  5
1E1
330
1F
100
AcDbEntity
  8
1
100
AcDbDimension
  2
*D12
 10
-159.7239404691354
 20
-108.1953743240401
 30
0.0
 11
-183.1179364270676
 21
-104.4453743240401
 31
0.0
 70
    32
  1
5mm (0.197
 71
     5
 42
-1.0
 53
0.00013888888889
  3
ME10_DIM_21
100
AcDbAlignedDimension
 13
-154.7239404691353
 23
-61.52339990768865
 33
0.0
 14
-159.7239404691353
 24
-94.62339990768865
 34
0.0
100
AcDbRotatedDimension
  0
INSERT
  5
1EA
330
1F
100
AcDbEntity
  8
1
100
AcDbBlockReference
  2
*D13
 10
0.0
 20
0.0
 30
0.0
  0
INSERT
  5
1F3
330
1F
100
AcDbEntity
  8
1
100
AcDbBlockReference
  2
*D14
 10
0.0
 20
0.0
 30
0.0
  0
ENDSEC
  0
SECTION
  2
OBJECTS
  0
DICTIONARY
  5
C
330
0
100
AcDbDictionary
281
     1
  3
ACAD_GROUP
350
D
  3
ACAD_LAYOUT
350
1A
  3
ACAD_MLEADERSTYLE
350
1F7
  3
ACAD_MLINESTYLE
350
17
  3
ACAD_PLOTSETTINGS
350
19
  3
ACAD_PLOTSTYLENAME
350
E
  3
ACAD_SCALELIST
350
12E
  3
ACAD_TABLESTYLE
350
1F6
  3
ACAD_VISUALSTYLE
350
2A
  3
AcDbVariableDictionary
350
1F4
  0
DICTIONARY
  5
D
102
{ACAD_REACTORS
330
C
102
}
330
C
100
AcDbDictionary
281
     1
  0
DICTIONARY
  5
1A
102
{ACAD_REACTORS
330
C
102
}
330
C
100
AcDbDictionary
281
     1
  3
Layout1
350
1E
  3
Layout2
350
26
  3
Model
350
22
  0
DICTIONARY
  5
1F7
102
{ACAD_REACTORS
330
C
102
}
330
C
100
AcDbDictionary
281
     1
  0
DICTIONARY
  5
17
102
{ACAD_REACTORS
330
C
102
}
330
C
100
AcDbDictionary
281
     1
  3
Standard
350
18
  0
DICTIONARY
  5
19
102
{ACAD_REACTORS
330
C
102
}
330
C
100
AcDbDictionary
281
     1
  0
ACDBDICTIONARYWDFLT
  5
E
102
{ACAD_REACTORS
330
C
102
}
330
C
100
AcDbDictionary
281
     1
  3
Normal
350
F
100
AcDbDictionaryWithDefault
340
F
  0
DICTIONARY
  5
12E
102
{ACAD_REACTORS
330
C
102
}
330
C
100
AcDbDictionary
281
     1
  3
A0
350
12F
  3
A1
350
130
  3
A2
350
131
  3
A3
350
132
  3
A4
350
133
  3
A5
350
134
  3
A6
350
135
  3
A7
350
136
  3
A8
350
137
  3
A9
350
138
  3
B0
350
139
  3
B1
350
13A
  3
B2
350
13B
  3
B3
350
13C
  3
B4
350
13D
  3
B5
350
13E
  3
B6
350
13F
  3
B7
350
140
  3
B8
350
141
  3
B9
350
142
  3
C0
350
143
  3
C1
350
144
  3
C2
350
145
  3
C3
350
146
  3
C4
350
147
  3
C5
350
148
  3
C6
350
149
  3
C7
350
14A
  3
C8
350
14B
  3
C9
350
14C
  3
D0
350
14D
  3
D1
350
14E
  3
D2
350
14F
  0
DICTIONARY
  5
1F6
102
{ACAD_REACTORS
330
C
102
}
330
C
100
AcDbDictionary
281
     1
  0
DICTIONARY
  5
2A
102
{ACAD_REACTORS
330
C
102
}
330
C
100
AcDbDictionary
281
     1
  3
2dWireframe
350
2F
  3
3D Hidden
350
31
  3
3dWireframe
350
30
  3
Basic
350
32
  3
Brighten
350
36
  3
ColorChange
350
3A
  3
Conceptual
350
34
  3
Dim
350
35
  3
Facepattern
350
39
  3
Flat
350
2B
  3
FlatWithEdges
350
2C
  3
Gouraud
350
2D
  3
GouraudWithEdges
350
2E
  3
Linepattern
350
38
  3
Realistic
350
33
  3
Thicken
350
37
  0
DICTIONARY
  5
1F4
102
{ACAD_REACTORS
330
C
102
}
330
C
100
AcDbDictionary
281
     1
  3
CANNOSCALE
350
1F5
  0
LAYOUT
  5
1E
102
{ACAD_REACTORS
330
1A
102
}
330
1A
100
AcDbPlotSettings
  1

  2
none_device
  4

  6

 40
0.0
 41
0.0
 42
0.0
 43
0.0
 44
0.0
 45
0.0
 46
0.0
 47
0.0
 48
0.0
 49
0.0
140
0.0
141
0.0
142
1.0
143
1.0
 70
   688
 72
     0
 73
     0
 74
     5
  7

 75
    16
 76
     0
 77
     2
 78
   300
147
1.0
148
0.0
149
0.0
100
AcDbLayout
  1
Layout1
 70
     1
 71
     1
 10
0.0
 20
0.0
 11
12.0
 21
9.0
 12
0.0
 22
0.0
 32
0.0
 14
1.00000000000000E+20
 24
1.00000000000000E+20
 34
1.00000000000000E+20
 15
-1.00000000000000E+20
 25
-1.00000000000000E+20
 35
-1.00000000000000E+20
146
0.0
 13
0.0
 23
0.0
 33
0.0
 16
1.0
 26
0.0
 36
0.0
 17
0.0
 27
1.0
 37
0.0
 76
     0
330
1B
  0
LAYOUT
  5
26
102
{ACAD_REACTORS
330
1A
102
}
330
1A
100
AcDbPlotSettings
  1

  2
none_device
  4

  6

 40
0.0
 41
0.0
 42
0.0
 43
0.0
 44
0.0
 45
0.0
 46
0.0
 47
0.0
 48
0.0
 49
0.0
140
0.0
141
0.0
142
1.0
143
1.0
 70
   688
 72
     0
 73
     0
 74
     5
  7

 75
    16
 76
     0
 77
     2
 78
   300
147
1.0
148
0.0
149
0.0
100
AcDbLayout
  1
Layout2
 70
     1
 71
     2
 10
0.0
 20
0.0
 11
0.0
 21
0.0
 12
0.0
 22
0.0
 32
0.0
 14
0.0
 24
0.0
 34
0.0
 15
0.0
 25
0.0
 35
0.0
146
0.0
 13
0.0
 23
0.0
 33
0.0
 16
1.0
 26
0.0
 36
0.0
 17
0.0
 27
1.0
 37
0.0
 76
     0
330
23
  0
LAYOUT
  5
22
102
{ACAD_REACTORS
330
1A
102
}
330
1A
100
AcDbPlotSettings
  1

  2
none_device
  4

  6

 40
0.0
 41
0.0
 42
0.0
 43
0.0
 44
0.0
 45
0.0
 46
0.0
 47
0.0
 48
0.0
 49
0.0
140
0.0
141
0.0
142
1.0
143
1.0
 70
  1712
 72
     0
 73
     0
 74
     0
  7

 75
     0
 76
     0
 77
     2
 78
   300
147
1.0
148
0.0
149
0.0
100
AcDbLayout
  1
Model
 70
     1
 71
     0
 10
0.0
 20
0.0
 11
12.0
 21
9.0
 12
0.0
 22
0.0
 32
0.0
 14
-199.67495248489
 24
-131.475422560464
 34
0.0
 15
196.080781006064
 25
109.4193999621323
 35
0.0
146
0.0
 13
0.0
 23
0.0
 33
0.0
 16
1.0
 26
0.0
 36
0.0
 17
0.0
 27
1.0
 37
0.0
 76
     0
330
1F
331
29
  0
MLINESTYLE
  5
18
102
{ACAD_REACTORS
330
17
102
}
330
17
100
AcDbMlineStyle
  2
Standard
 70
     0
  3

 62
   256
 51
90.0
 52
90.0
 71
     2
 49
0.5
 62
   256
  6
BYLAYER
 49
-0.5
 62
   256
  6
BYLAYER
  0
ACDBPLACEHOLDER
  5
F
102
{ACAD_REACTORS
330
E
102
}
330
E
  0
SCALE
  5
12F
102
{ACAD_REACTORS
330
12E
102
}
330
12E
100
AcDbScale
 70
     0
300
1:1
140
1.0
141
1.0
290
     1
  0
SCALE
  5
130
102
{ACAD_REACTORS
330
12E
102
}
330
12E
100
AcDbScale
 70
     0
300
1:2
140
1.0
141
2.0
290
     0
  0
SCALE
  5
131
102
{ACAD_REACTORS
330
12E
102
}
330
12E
100
AcDbScale
 70
     0
300
1:4
140
1.0
141
4.0
290
     0
  0
SCALE
  5
132
102
{ACAD_REACTORS
330
12E
102
}
330
12E
100
AcDbScale
 70
     0
300
1:5
140
1.0
141
5.0
290
     0
  0
SCALE
  5
133
102
{ACAD_REACTORS
330
12E
102
}
330
12E
100
AcDbScale
 70
     0
300
1:8
140
1.0
141
8.0
290
     0
  0
SCALE
  5
134
102
{ACAD_REACTORS
330
12E
102
}
330
12E
100
AcDbScale
 70
     0
300
1:10
140
1.0
141
10.0
290
     0
  0
SCALE
  5
135
102
{ACAD_REACTORS
330
12E
102
}
330
12E
100
AcDbScale
 70
     0
300
1:16
140
1.0
141
16.0
290
     0
  0
SCALE
  5
136
102
{ACAD_REACTORS
330
12E
102
}
330
12E
100
AcDbScale
 70
     0
300
1:20
140
1.0
141
20.0
290
     0
  0
SCALE
  5
137
102
{ACAD_REACTORS
330
12E
102
}
330
12E
100
AcDbScale
 70
     0
300
1:30
140
1.0
141
30.0
290
     0
  0
SCALE
  5
138
102
{ACAD_REACTORS
330
12E
102
}
330
12E
100
AcDbScale
 70
     0
300
1:40
140
1.0
141
40.0
290
     0
  0
SCALE
  5
139
102
{ACAD_REACTORS
330
12E
102
}
330
12E
100
AcDbScale
 70
     0
300
1:50
140
1.0
141
50.0
290
     0
  0
SCALE
  5
13A
102
{ACAD_REACTORS
330
12E
102
}
330
12E
100
AcDbScale
 70
     0
300
1:100
140
1.0
141
100.0
290
     0
  0
SCALE
  5
13B
102
{ACAD_REACTORS
330
12E
102
}
330
12E
100
AcDbScale
 70
     0
300
2:1
140
2.0
141
1.0
290
     0
  0
SCALE
  5
13C
102
{ACAD_REACTORS
330
12E
102
}
330
12E
100
AcDbScale
 70
     0
300
4:1
140
4.0
141
1.0
290
     0
  0
SCALE
  5
13D
102
{ACAD_REACTORS
330
12E
102
}
330
12E
100
AcDbScale
 70
     0
300
8:1
140
8.0
141
1.0
290
     0
  0
SCALE
  5
13E
102
{ACAD_REACTORS
330
12E
102
}
330
12E
100
AcDbScale
 70
     0
300
10:1
140
10.0
141
1.0
290
     0
  0
SCALE
  5
13F
102
{ACAD_REACTORS
330
12E
102
}
330
12E
100
AcDbScale
 70
     0
300
100:1
140
100.0
141
1.0
290
     0
  0
SCALE
  5
140
102
{ACAD_REACTORS
330
12E
102
}
330
12E
100
AcDbScale
 70
     0
300
1/128" = 1'-0"
140
0.0078125
141
12.0
290
     0
  0
SCALE
  5
141
102
{ACAD_REACTORS
330
12E
102
}
330
12E
100
AcDbScale
 70
     0
300
1/64" = 1'-0"
140
0.015625
141
12.0
290
     0
  0
SCALE
  5
142
102
{ACAD_REACTORS
330
12E
102
}
330
12E
100
AcDbScale
 70
     0
300
1/32" = 1'-0"
140
0.03125
141
12.0
290
     0
  0
SCALE
  5
143
102
{ACAD_REACTORS
330
12E
102
}
330
12E
100
AcDbScale
 70
     0
300
1/16" = 1'-0"
140
0.0625
141
12.0
290
     0
  0
SCALE
  5
144
102
{ACAD_REACTORS
330
12E
102
}
330
12E
100
AcDbScale
 70
     0
300
3/32" = 1'-0"
140
0.09375
141
12.0
290
     0
  0
SCALE
  5
145
102
{ACAD_REACTORS
330
12E
102
}
330
12E
100
AcDbScale
 70
     0
300
1/8" = 1'-0"
140
0.125
141
12.0
290
     0
  0
SCALE
  5
146
102
{ACAD_REACTORS
330
12E
102
}
330
12E
100
AcDbScale
 70
     0
300
3/16" = 1'-0"
140
0.1875
141
12.0
290
     0
  0
SCALE
  5
147
102
{ACAD_REACTORS
330
12E
102
}
330
12E
100
AcDbScale
 70
     0
300
1/4" = 1'-0"
140
0.25
141
12.0
290
     0
  0
SCALE
  5
148
102
{ACAD_REACTORS
330
12E
102
}
330
12E
100
AcDbScale
 70
     0
300
3/8" = 1'-0"
140
0.375
141
12.0
290
     0
  0
SCALE
  5
149
102
{ACAD_REACTORS
330
12E
102
}
330
12E
100
AcDbScale
 70
     0
300
1/2" = 1'-0"
140
0.5
141
12.0
290
     0
  0
SCALE
  5
14A
102
{ACAD_REACTORS
330
12E
102
}
330
12E
100
AcDbScale
 70
     0
300
3/4" = 1'-0"
140
0.75
141
12.0
290
     0
  0
SCALE
  5
14B
102
{ACAD_REACTORS
330
12E
102
}
330
12E
100
AcDbScale
 70
     0
300
1" = 1'-0"
140
1.0
141
12.0
290
     0
  0
SCALE
  5
14C
102
{ACAD_REACTORS
330
12E
102
}
330
12E
100
AcDbScale
 70
     0
300
1-1/2" = 1'-0"
140
1.5
141
12.0
290
     0
  0
SCALE
  5
14D
102
{ACAD_REACTORS
330
12E
102
}
330
12E
100
AcDbScale
 70
     0
300
3" = 1'-0"
140
3.0
141
12.0
290
     0
  0
SCALE
  5
14E
102
{ACAD_REACTORS
330
12E
102
}
330
12E
100
AcDbScale
 70
     0
300
6" = 1'-0"
140
6.0
141
12.0
290
     0
  0
SCALE
  5
14F
102
{ACAD_REACTORS
330
12E
102
}
330
12E
100
AcDbScale
 70
     0
300
1'-0" = 1'-0"
140
12.0
141
12.0
290
     0
  0
VISUALSTYLE
  5
2F
102
{ACAD_REACTORS
330
2A
102
}
330
2A
100
AcDbVisualStyle
  2
2dWireframe
 70
     4
 71
     0
 72
     2
 73
     0
 90
        0
 40
-0.6
 41
-30.0
 62
     5
 63
     7
421
 16777215
 74
     1
 91
        4
 64
     7
 65
   257
 75
     1
175
     1
 42
1.0
 92
        0
 66
   257
 43
1.0
 76
     1
 77
     6
 78
     2
 67
     7
 79
     5
170
     0
171
     0
290
     0
174
     0
 93
        1
 44
0.0
173
     0
291
     0
 45
0.0
1001
ACAD
1000
AcDbSavedByObjectVersion
1070
     0
  0
VISUALSTYLE
  5
31
102
{ACAD_REACTORS
330
2A
102
}
330
2A
100
AcDbVisualStyle
  2
3D Hidden
 70
     6
 71
     1
 72
     2
 73
     2
 90
        0
 40
-0.6
 41
-30.0
 62
     5
 63
     7
421
 16777215
 74
     2
 91
        2
 64
     7
 65
   257
 75
     2
175
     1
 42
40.0
 92
        0
 66
   257
 43
1.0
 76
     1
 77
     6
 78
     2
 67
     7
 79
     3
170
     0
171
     0
290
     0
174
     0
 93
        1
 44
0.0
173
     0
291
     0
 45
0.0
1001
ACAD
1000
AcDbSavedByObjectVersion
1070
     0
  0
VISUALSTYLE
  5
30
102
{ACAD_REACTORS
330
2A
102
}
330
2A
100
AcDbVisualStyle
  2
3dWireframe
 70
     5
 71
     0
 72
     2
 73
     0
 90
        0
 40
-0.6
 41
-30.0
 62
     5
 63
     7
421
 16777215
 74
     1
 91
        4
 64
     7
 65
   257
 75
     1
175
     1
 42
1.0
 92
        0
 66
   257
 43
1.0
 76
     1
 77
     6
 78
     2
 67
     7
 79
     5
170
     0
171
     0
290
     0
174
     0
 93
        1
 44
0.0
173
     0
291
     0
 45
0.0
1001
ACAD
1000
AcDbSavedByObjectVersion
1070
     0
  0
VISUALSTYLE
  5
32
102
{ACAD_REACTORS
330
2A
102
}
330
2A
100
AcDbVisualStyle
  2
Basic
 70
     7
 71
     1
 72
     0
 73
     1
 90
        0
 40
-0.6
 41
-30.0
 62
     5
 63
     7
421
 16777215
 74
     0
 91
        4
 64
     7
 65
   257
 75
     1
175
     1
 42
1.0
 92
        8
 66
     7
 43
1.0
 76
     1
 77
     6
 78
     2
 67
     7
 79
     5
170
     0
171
     0
290
     0
174
     0
 93
        1
 44
0.0
173
     0
291
     1
 45
0.0
1001
ACAD
1000
AcDbSavedByObjectVersion
1070
     0
  0
VISUALSTYLE
  5
36
102
{ACAD_REACTORS
330
2A
102
}
330
2A
100
AcDbVisualStyle
  2
Brighten
 70
    12
 71
     2
 72
     2
 73
     0
 90
        0
 40
-0.6
 41
-30.0
 62
     5
 63
     7
421
 16777215
 74
     1
 91
        4
 64
     7
 65
   257
 75
     1
175
     1
 42
1.0
 92
        8
 66
     7
 43
1.0
 76
     1
 77
     6
 78
     2
 67
     7
 79
     5
170
     0
171
     0
290
     0
174
     0
 93
        1
 44
50.0
173
     0
291
     1
 45
0.0
1001
ACAD
1000
AcDbSavedByObjectVersion
1070
     0
  0
VISUALSTYLE
  5
3A
102
{ACAD_REACTORS
330
2A
102
}
330
2A
100
AcDbVisualStyle
  2
ColorChange
 70
    16
 71
     2
 72
     2
 73
     3
 90
        0
 40
-0.6
 41
-30.0
 62
     5
 63
     8
421
  8421504
 74
     1
 91
        4
 64
     7
 65
   257
 75
     1
175
     1
 42
1.0
 92
        8
 66
     8
424
  8421504
 43
1.0
 76
     1
 77
     6
 78
     2
 67
     7
 79
     5
170
     0
171
     0
290
     0
174
     0
 93
        1
 44
0.0
173
     0
291
     1
 45
0.0
1001
ACAD
1000
AcDbSavedByObjectVersion
1070
     0
  0
VISUALSTYLE
  5
34
102
{ACAD_REACTORS
330
2A
102
}
330
2A
100
AcDbVisualStyle
  2
Conceptual
 70
     9
 71
     3
 72
     2
 73
     0
 90
        0
 40
-0.6
 41
-30.0
 62
     5
 63
     7
421
 16777215
 74
     2
 91
        2
 64
     7
 65
   257
 75
     1
175
     1
 42
40.0
 92
        8
 66
     7
 43
1.0
 76
     1
 77
     6
 78
     2
 67
     7
 79
     3
170
     0
171
     0
290
     0
174
     0
 93
        1
 44
0.0
173
     0
291
     0
 45
0.0
1001
ACAD
1000
AcDbSavedByObjectVersion
1070
     0
  0
VISUALSTYLE
  5
35
102
{ACAD_REACTORS
330
2A
102
}
330
2A
100
AcDbVisualStyle
  2
Dim
 70
    11
 71
     2
 72
     2
 73
     0
 90
        0
 40
-0.6
 41
-30.0
 62
     5
 63
     7
421
 16777215
 74
     1
 91
        4
 64
     7
 65
   257
 75
     1
175
     1
 42
1.0
 92
        8
 66
     7
 43
1.0
 76
     1
 77
     6
 78
     2
 67
     7
 79
     5
170
     0
171
     0
290
     0
174
     0
 93
        1
 44
-50.0
173
     0
291
     1
 45
0.0
1001
ACAD
1000
AcDbSavedByObjectVersion
1070
     0
  0
VISUALSTYLE
  5
39
102
{ACAD_REACTORS
330
2A
102
}
330
2A
100
AcDbVisualStyle
  2
Facepattern
 70
    15
 71
     2
 72
     2
 73
     0
 90
        0
 40
-0.6
 41
-30.0
 62
     5
 63
     7
421
 16777215
 74
     1
 91
        4
 64
     7
 65
   257
 75
     1
175
     1
 42
1.0
 92
        8
 66
     7
 43
1.0
 76
     1
 77
     6
 78
     2
 67
     7
 79
     5
170
     0
171
     0
290
     0
174
     0
 93
        1
 44
0.0
173
     0
291
     1
 45
0.0
1001
ACAD
1000
AcDbSavedByObjectVersion
1070
     0
  0
VISUALSTYLE
  5
2B
102
{ACAD_REACTORS
330
2A
102
}
330
2A
100
AcDbVisualStyle
  2
Flat
 70
     0
 71
     2
 72
     1
 73
     1
 90
        2
 40
-0.6
 41
30.0
 62
     5
 63
     7
421
 16777215
 74
     0
 91
        4
 64
     7
 65
   257
 75
     1
175
     1
 42
1.0
 92
        8
 66
     7
 43
1.0
 76
     1
 77
     6
 78
     2
 67
     7
 79
     5
170
     0
171
     0
290
     0
174
     0
 93
       13
 44
0.0
173
     0
291
     1
 45
0.0
1001
ACAD
1000
AcDbSavedByObjectVersion
1070
     0
  0
VISUALSTYLE
  5
2C
102
{ACAD_REACTORS
330
2A
102
}
330
2A
100
AcDbVisualStyle
  2
FlatWithEdges
 70
     1
 71
     2
 72
     1
 73
     1
 90
        2
 40
-0.6
 41
30.0
 62
     5
 63
     7
421
 16777215
 74
     1
 91
        4
 64
     7
 65
   257
 75
     1
175
     1
 42
1.0
 92
        0
 66
   257
 43
1.0
 76
     1
 77
     6
 78
     2
 67
     7
 79
     5
170
     0
171
     0
290
     0
174
     0
 93
       13
 44
0.0
173
     0
291
     1
 45
0.0
1001
ACAD
1000
AcDbSavedByObjectVersion
1070
     0
  0
VISUALSTYLE
  5
2D
102
{ACAD_REACTORS
330
2A
102
}
330
2A
100
AcDbVisualStyle
  2
Gouraud
 70
     2
 71
     2
 72
     2
 73
     1
 90
        2
 40
-0.6
 41
30.0
 62
     5
 63
     7
421
 16777215
 74
     0
 91
        4
 64
     7
 65
   257
 75
     1
175
     1
 42
1.0
 92
        0
 66
     7
 43
1.0
 76
     1
 77
     6
 78
     2
 67
     7
 79
     5
170
     0
171
     0
290
     0
174
     0
 93
       13
 44
0.0
173
     0
291
     1
 45
0.0
1001
ACAD
1000
AcDbSavedByObjectVersion
1070
     0
  0
VISUALSTYLE
  5
2E
102
{ACAD_REACTORS
330
2A
102
}
330
2A
100
AcDbVisualStyle
  2
GouraudWithEdges
 70
     3
 71
     2
 72
     2
 73
     1
 90
        2
 40
-0.6
 41
30.0
 62
     5
 63
     7
421
 16777215
 74
     1
 91
        4
 64
     7
 65
   257
 75
     1
175
     1
 42
1.0
 92
        0
 66
   257
 43
1.0
 76
     1
 77
     6
 78
     2
 67
     7
 79
     5
170
     0
171
     0
290
     0
174
     0
 93
       13
 44
0.0
173
     0
291
     1
 45
0.0
1001
ACAD
1000
AcDbSavedByObjectVersion
1070
     0
  0
VISUALSTYLE
  5
38
102
{ACAD_REACTORS
330
2A
102
}
330
2A
100
AcDbVisualStyle
  2
Linepattern
 70
    14
 71
     2
 72
     2
 73
     0
 90
        0
 40
-0.6
 41
-30.0
 62
     5
 63
     7
421
 16777215
 74
     1
 91
        4
 64
     7
 65
   257
 75
     7
175
     7
 42
1.0
 92
        8
 66
     7
 43
1.0
 76
     1
 77
     6
 78
     2
 67
     7
 79
     5
170
     0
171
     0
290
     0
174
     0
 93
        1
 44
0.0
173
     0
291
     1
 45
0.0
1001
ACAD
1000
AcDbSavedByObjectVersion
1070
     0
  0
VISUALSTYLE
  5
33
102
{ACAD_REACTORS
330
2A
102
}
330
2A
100
AcDbVisualStyle
  2
Realistic
 70
     8
 71
     2
 72
     2
 73
     0
 90
        0
 40
-0.6
 41
-30.0
 62
     5
 63
     7
421
 16777215
 74
     1
 91
        0
 64
     7
 65
   257
 75
     1
175
     1
 42
1.0
 92
        8
 66
     8
424
  7895160
 43
1.0
 76
     1
 77
     6
 78
     2
 67
     7
 79
     5
170
     0
171
     0
290
     0
174
     0
 93
       13
 44
0.0
173
     0
291
     0
 45
0.0
1001
ACAD
1000
AcDbSavedByObjectVersion
1070
     0
  0
VISUALSTYLE
  5
37
102
{ACAD_REACTORS
330
2A
102
}
330
2A
100
AcDbVisualStyle
  2
Thicken
 70
    13
 71
     2
 72
     2
 73
     0
 90
        0
 40
-0.6
 41
-30.0
 62
     5
 63
     7
421
 16777215
 74
     1
 91
        4
 64
     7
 65
   257
 75
     1
175
     1
 42
1.0
 92
       12
 66
     7
 43
1.0
 76
     1
 77
     6
 78
     2
 67
     7
 79
     5
170
     0
171
     0
290
     0
174
     0
 93
        1
 44
0.0
173
     0
291
     1
 45
0.0
1001
ACAD
1000
AcDbSavedByObjectVersion
1070
     0
  0
DICTIONARYVAR
  5
1F5
102
{ACAD_REACTORS
330
1F4
102
}
330
1F4
100
DictionaryVariables
280
     0
  1
1:1
  0
ENDSEC
  0
EOF
