  0
SECTION
  2
HEADER
  9
$ACADVER
  1
AC1018
  9
$ACADMAINTVER
 70
     0
  9
$DWGCODEPAGE
  3
ANSI_1252
  9
$INSBASE
 10
0.0
 20
0.0
 30
0.0
  9
$EXTMIN
 10
152.471345540467
 20
-230.603158173665
 30
0.0
  9
$EXTMAX
 10
291.613060893123
 20
-117.5599502096961
 30
0.0
  9
$LIMMIN
 10
0.0
 20
0.0
  9
$LIMMAX
 10
12.0
 20
9.0
  9
$ORTHOMODE
 70
     0
  9
$REGENMODE
 70
     1
  9
$FILLMODE
 70
     1
  9
$QTEXTMODE
 70
     0
  9
$MIRRTEXT
 70
     1
  9
$LTSCALE
 40
1.0
  9
$ATTMODE
 70
     1
  9
$TEXTSIZE
 40
0.2
  9
$TRACEWID
 40
0.05
  9
$TEXTSTYLE
  7
Standard
  9
$CLAYER
  8
0
  9
$CELTYPE
  6
ByLayer
  9
$CECOLOR
 62
   256
  9
$CELTSCALE
 40
1.0
  9
$DISPSILH
 70
     0
  9
$DIMSCALE
 40
1.0
  9
$DIMASZ
 40
0.18
  9
$DIMEXO
 40
0.0625
  9
$DIMDLI
 40
0.38
  9
$DIMRND
 40
0.0
  9
$DIMDLE
 40
0.0
  9
$DIMEXE
 40
0.18
  9
$DIMTP
 40
0.0
  9
$DIMTM
 40
0.0
  9
$DIMTXT
 40
0.18
  9
$DIMCEN
 40
0.09
  9
$DIMTSZ
 40
0.0
  9
$DIMTOL
 70
     0
  9
$DIMLIM
 70
     0
  9
$DIMTIH
 70
     1
  9
$DIMTOH
 70
     1
  9
$DIMSE1
 70
     0
  9
$DIMSE2
 70
     0
  9
$DIMTAD
 70
     0
  9
$DIMZIN
 70
     0
  9
$DIMBLK
  1

  9
$DIMASO
 70
     1
  9
$DIMSHO
 70
     1
  9
$DIMPOST
  1

  9
$DIMAPOST
  1

  9
$DIMALT
 70
     0
  9
$DIMALTD
 70
     2
  9
$DIMALTF
 40
25.4
  9
$DIMLFAC
 40
1.0
  9
$DIMTOFL
 70
     0
  9
$DIMTVP
 40
0.0
  9
$DIMTIX
 70
     0
  9
$DIMSOXD
 70
     0
  9
$DIMSAH
 70
     0
  9
$DIMBLK1
  1

  9
$DIMBLK2
  1

  9
$DIMSTYLE
  2
Standard
  9
$DIMCLRD
 70
     0
  9
$DIMCLRE
 70
     0
  9
$DIMCLRT
 70
     0
  9
$DIMTFAC
 40
1.0
  9
$DIMGAP
 40
0.09
  9
$DIMJUST
 70
     0
  9
$DIMSD1
 70
     0
  9
$DIMSD2
 70
     0
  9
$DIMTOLJ
 70
     1
  9
$DIMTZIN
 70
     0
  9
$DIMALTZ
 70
     0
  9
$DIMALTTZ
 70
     0
  9
$DIMUPT
 70
     0
  9
$DIMDEC
 70
     4
  9
$DIMTDEC
 70
     4
  9
$DIMALTU
 70
     2
  9
$DIMALTTD
 70
     2
  9
$DIMTXSTY
  7
Standard
  9
$DIMAUNIT
 70
     0
  9
$DIMADEC
 70
     0
  9
$DIMALTRND
 40
0.0
  9
$DIMAZIN
 70
     0
  9
$DIMDSEP
 70
    46
  9
$DIMATFIT
 70
     3
  9
$DIMFRAC
 70
     0
  9
$DIMLDRBLK
  1

  9
$DIMLUNIT
 70
     2
  9
$DIMLWD
 70
    -2
  9
$DIMLWE
 70
    -2
  9
$DIMTMOVE
 70
     0
  9
$LUNITS
 70
     2
  9
$LUPREC
 70
     4
  9
$SKETCHINC
 40
0.1
  9
$FILLETRAD
 40
0.5
  9
$AUNITS
 70
     0
  9
$AUPREC
 70
     0
  9
$MENU
  1
.
  9
$ELEVATION
 40
0.0
  9
$PELEVATION
 40
0.0
  9
$THICKNESS
 40
0.0
  9
$LIMCHECK
 70
     0
  9
$CHAMFERA
 40
0.5
  9
$CHAMFERB
 40
0.5
  9
$CHAMFERC
 40
1.0
  9
$CHAMFERD
 40
0.0
  9
$SKPOLY
 70
     0
  9
$TDCREATE
 40
2454897.378527732
  9
$TDUCREATE
 40
2454897.336861065
  9
$TDUPDATE
 40
2454897.378527743
  9
$TDUUPDATE
 40
2454897.336861076
  9
$TDINDWG
 40
0.0000000116
  9
$TDUSRTIMER
 40
0.0000000116
  9
$USRTIMER
 70
     1
  9
$ANGBASE
 50
0.0
  9
$ANGDIR
 70
     0
  9
$PDMODE
 70
     0
  9
$PDSIZE
 40
0.0
  9
$PLINEWID
 40
0.0
  9
$SPLFRAME
 70
     0
  9
$SPLINETYPE
 70
     6
  9
$SPLINESEGS
 70
     8
  9
$HANDSEED
  5
18C
  9
$SURFTAB1
 70
     6
  9
$SURFTAB2
 70
     6
  9
$SURFTYPE
 70
     6
  9
$SURFU
 70
     6
  9
$SURFV
 70
     6
  9
$UCSBASE
  2

  9
$UCSNAME
  2

  9
$UCSORG
 10
0.0
 20
0.0
 30
0.0
  9
$UCSXDIR
 10
1.0
 20
0.0
 30
0.0
  9
$UCSYDIR
 10
0.0
 20
1.0
 30
0.0
  9
$UCSORTHOREF
  2

  9
$UCSORTHOVIEW
 70
     0
  9
$UCSORGTOP
 10
0.0
 20
0.0
 30
0.0
  9
$UCSORGBOTTOM
 10
0.0
 20
0.0
 30
0.0
  9
$UCSORGLEFT
 10
0.0
 20
0.0
 30
0.0
  9
$UCSORGRIGHT
 10
0.0
 20
0.0
 30
0.0
  9
$UCSORGFRONT
 10
0.0
 20
0.0
 30
0.0
  9
$UCSORGBACK
 10
0.0
 20
0.0
 30
0.0
  9
$PUCSBASE
  2

  9
$PUCSNAME
  2

  9
$PUCSORG
 10
0.0
 20
0.0
 30
0.0
  9
$PUCSXDIR
 10
1.0
 20
0.0
 30
0.0
  9
$PUCSYDIR
 10
0.0
 20
1.0
 30
0.0
  9
$PUCSORTHOREF
  2

  9
$PUCSORTHOVIEW
 70
     0
  9
$PUCSORGTOP
 10
0.0
 20
0.0
 30
0.0
  9
$PUCSORGBOTTOM
 10
0.0
 20
0.0
 30
0.0
  9
$PUCSORGLEFT
 10
0.0
 20
0.0
 30
0.0
  9
$PUCSORGRIGHT
 10
0.0
 20
0.0
 30
0.0
  9
$PUCSORGFRONT
 10
0.0
 20
0.0
 30
0.0
  9
$PUCSORGBACK
 10
0.0
 20
0.0
 30
0.0
  9
$USERI1
 70
     0
  9
$USERI2
 70
     0
  9
$USERI3
 70
     0
  9
$USERI4
 70
     0
  9
$USERI5
 70
     0
  9
$USERR1
 40
14.5
  9
$USERR2
 40
0.0
  9
$USERR3
 40
0.0
  9
$USERR4
 40
0.0
  9
$USERR5
 40
0.0
  9
$WORLDVIEW
 70
     1
  9
$SHADEDGE
 70
     3
  9
$SHADEDIF
 70
    70
  9
$TILEMODE
 70
     1
  9
$MAXACTVP
 70
    64
  9
$PINSBASE
 10
0.0
 20
0.0
 30
0.0
  9
$PLIMCHECK
 70
     0
  9
$PEXTMIN
 10
1.00000000000000E+20
 20
1.00000000000000E+20
 30
1.00000000000000E+20
  9
$PEXTMAX
 10
-1.00000000000000E+20
 20
-1.00000000000000E+20
 30
-1.00000000000000E+20
  9
$PLIMMIN
 10
0.0
 20
0.0
  9
$PLIMMAX
 10
12.0
 20
9.0
  9
$UNITMODE
 70
     0
  9
$VISRETAIN
 70
     1
  9
$PLINEGEN
 70
     0
  9
$PSLTSCALE
 70
     1
  9
$TREEDEPTH
 70
  3020
  9
$CMLSTYLE
  2
Standard
  9
$CMLJUST
 70
     0
  9
$CMLSCALE
 40
1.0
  9
$PROXYGRAPHICS
 70
     1
  9
$MEASUREMENT
 70
     1
  9
$CELWEIGHT
370
    -1
  9
$ENDCAPS
280
     0
  9
$JOINSTYLE
280
     0
  9
$LWDISPLAY
290
     0
  9
$INSUNITS
 70
     1
  9
$HYPERLINKBASE
  1

  9
$STYLESHEET
  1

  9
$XEDIT
290
     1
  9
$CEPSNTYPE
380
     0
  9
$PSTYLEMODE
290
     1
  9
$FINGERPRINTGUID
  2
{39DE7C14-4EEF-42CE-8477-249119C549DB}
  9
$VERSIONGUID
  2
{FAEB1C32-E019-11D5-929B-00C0DF256EC4}
  9
$EXTNAMES
290
     1
  9
$PSVPSCALE
 40
0.0
  9
$OLESTARTUP
290
     0
  9
$SORTENTS
280
   127
  9
$INDEXCTL
280
     0
  9
$HIDETEXT
280
     1
  9
$XCLIPFRAME
290
     0
  9
$HALOGAP
280
     0
  9
$OBSCOLOR
 70
   257
  9
$OBSLTYPE
280
     0
  9
$INTERSECTIONDISPLAY
280
     0
  9
$INTERSECTIONCOLOR
 70
   257
  9
$DIMASSOC
280
     2
  9
$PROJECTNAME
  1

  0
ENDSEC
  0
SECTION
  2
CLASSES
  0
CLASS
  1
ACDBDICTIONARYWDFLT
  2
AcDbDictionaryWithDefault
  3
ObjectDBX Classes
 90
        0
 91
        3
280
     0
281
     0
  0
CLASS
  1

  2
exOdDbCircle
  3

 90
        0
 91
        3
280
     0
281
     1
  0
ENDSEC
  0
SECTION
  2
TABLES
  0
TABLE
  2
VPORT
  5
8
330
0
100
AcDbSymbolTable
 70
     1
  0
VPORT
  5
29
330
8
100
AcDbSymbolTableRecord
100
AcDbViewportTableRecord
  2
*Active
 70
     0
 10
0.0
 20
0.0
 11
1.0
 21
1.0
 12
222.042203216795
 22
-174.0815541916805
 13
0.0
 23
0.0
 14
0.5
 24
0.5
 15
0.5
 25
0.5
 16
0.0
 26
0.0
 36
1.0
 17
0.0
 27
0.0
 37
0.0
 40
124.3475287603658
 41
1.60267857142857
 42
50.0
 43
0.0
 44
0.0
 50
0.0
 51
0.0
 71
     0
 72
   100
 73
     1
 74
     3
 75
     0
 76
     0
 77
     0
 78
     0
281
     0
 65
     1
110
0.0
120
0.0
130
0.0
111
1.0
121
0.0
131
0.0
112
0.0
122
1.0
132
0.0
 79
     0
146
0.0
  0
ENDTAB
  0
TABLE
  2
LTYPE
  5
5
330
0
100
AcDbSymbolTable
 70
     8
  0
LTYPE
  5
14
330
5
100
AcDbSymbolTableRecord
100
AcDbLinetypeTableRecord
  2
ByBlock
 70
     0
  3

 72
    65
 73
     0
 40
0.0
  0
LTYPE
  5
15
330
5
100
AcDbSymbolTableRecord
100
AcDbLinetypeTableRecord
  2
ByLayer
 70
     0
  3

 72
    65
 73
     0
 40
0.0
  0
LTYPE
  5
16
330
5
100
AcDbSymbolTableRecord
100
AcDbLinetypeTableRecord
  2
Continuous
 70
     0
  3
Solid line
 72
    65
 73
     0
 40
0.0
  0
LTYPE
  5
2A
330
5
100
AcDbSymbolTableRecord
100
AcDbLinetypeTableRecord
  2
DASHED
 70
     0
  3
Dashed
 72
    65
 73
     2
 40
15.0
 49
7.0
 74
     0
 49
-8.0
 74
     0
  0
LTYPE
  5
2B
330
5
100
AcDbSymbolTableRecord
100
AcDbLinetypeTableRecord
  2
DOTTED
 70
     0
  3
Dotted
 72
    65
 73
     2
 40
1.0
 49
0.0
 74
     0
 49
-1.0
 74
     0
  0
LTYPE
  5
2C
330
5
100
AcDbSymbolTableRecord
100
AcDbLinetypeTableRecord
  2
DOT_CENTER
 70
     0
  3
Dot_Center
 72
    65
 73
     4
 40
14.0
 49
12.0
 74
     0
 49
-1.0
 74
     0
 49
0.0
 74
     0
 49
-1.0
 74
     0
  0
LTYPE
  5
2D
330
5
100
AcDbSymbolTableRecord
100
AcDbLinetypeTableRecord
  2
LONG_DASHED
 70
     0
  3
Long_Dashed
 72
    65
 73
     2
 40
15.0
 49
10.0
 74
     0
 49
-5.0
 74
     0
  0
LTYPE
  5
2E
330
5
100
AcDbSymbolTableRecord
100
AcDbLinetypeTableRecord
  2
DASH_CENTER
 70
     0
  3
Dash_Center
 72
    65
 73
     4
 40
14.0
 49
11.0
 74
     0
 49
-1.0
 74
     0
 49
1.0
 74
     0
 49
-1.0
 74
     0
  0
LTYPE
  5
2F
330
5
100
AcDbSymbolTableRecord
100
AcDbLinetypeTableRecord
  2
PHANTOM
 70
     0
  3
Phantom
 72
    65
 73
     6
 40
13.0
 49
10.0
 74
     0
 49
-1.0
 74
     0
 49
0.0
 74
     0
 49
-1.0
 74
     0
 49
0.0
 74
     0
 49
-1.0
 74
     0
  0
LTYPE
  5
30
330
5
100
AcDbSymbolTableRecord
100
AcDbLinetypeTableRecord
  2
CENTER_DASH_DASH
 70
     0
  3
Center_Dash_Dash
 72
    65
 73
     6
 40
14.0
 49
9.0
 74
     0
 49
-1.0
 74
     0
 49
1.0
 74
     0
 49
-1.0
 74
     0
 49
1.0
 74
     0
 49
-1.0
 74
     0
  0
ENDTAB
  0
TABLE
  2
LAYER
  5
2
330
0
100
AcDbSymbolTable
 70
     3
  0
LAYER
  5
10
330
2
100
AcDbSymbolTableRecord
100
AcDbLayerTableRecord
  2
0
 70
     0
 62
     7
  6
Continuous
370
    -3
390
F
  0
LAYER
  5
31
330
2
100
AcDbSymbolTableRecord
100
AcDbLayerTableRecord
  2
1
 70
     0
 62
     7
  6
Continuous
370
    -3
390
F
  0
LAYER
  5
32
330
2
100
AcDbSymbolTableRecord
100
AcDbLayerTableRecord
  2
DEFAULT_1
 70
     0
 62
     7
  6
Continuous
370
    -3
390
F
  0
ENDTAB
  0
TABLE
  2
STYLE
  5
3
330
0
100
AcDbSymbolTable
 70
     2
  0
STYLE
  5
11
330
3
100
AcDbSymbolTableRecord
100
AcDbTextStyleTableRecord
  2
Standard
 70
     0
 40
0.0
 41
1.0
 50
0.0
 71
     0
 42
0.2
  3
txt
  4

  0
STYLE
  5
135
330
3
100
AcDbSymbolTableRecord
100
AcDbTextStyleTableRecord
  2
CONVERTER_11
 70
     0
 40
0.0
 41
0.9
 50
0.0
 71
     0
 42
0.2
  3
txt.shx
  4

  0
ENDTAB
  0
TABLE
  2
VIEW
  5
6
330
0
100
AcDbSymbolTable
 70
     0
  0
ENDTAB
  0
TABLE
  2
UCS
  5
7
330
0
100
AcDbSymbolTable
 70
     0
  0
ENDTAB
  0
TABLE
  2
APPID
  5
9
330
0
100
AcDbSymbolTable
 70
     1
  0
APPID
  5
12
330
9
100
AcDbSymbolTableRecord
100
AcDbRegAppTableRecord
  2
ACAD
 70
     0
  0
ENDTAB
  0
TABLE
  2
DIMSTYLE
  5
A
330
0
100
AcDbSymbolTable
 70
     9
100
AcDbDimStyleTable
  0
DIMSTYLE
105
27
330
A
100
AcDbSymbolTableRecord
100
AcDbDimStyleTableRecord
  2
Standard
 70
     0
340
11
  0
DIMSTYLE
105
139
102
{ACAD_REACTORS
330
13A
102
}
330
A
100
AcDbSymbolTableRecord
100
AcDbDimStyleTableRecord
  2
ME10_DIM_10
 70
     0
 41
3.5
 42
0.0
 44
2.0
 73
     0
 74
     0
 77
     1
 78
     8
140
3.5
147
2.0
172
     1
173
     1
176
     2
177
     2
178
     2
271
     3
340
135
  0
DIMSTYLE
105
144
102
{ACAD_REACTORS
330
145
102
}
330
A
100
AcDbSymbolTableRecord
100
AcDbDimStyleTableRecord
  2
ME10_DIM_11
 70
     0
 41
3.5
 42
0.0
 44
2.0
 73
     0
 74
     0
 77
     1
 78
     8
140
3.5
147
2.0
172
     1
173
     1
176
     2
177
     2
178
     2
271
     3
340
135
  0
DIMSTYLE
105
14F
102
{ACAD_REACTORS
330
150
102
}
330
A
100
AcDbSymbolTableRecord
100
AcDbDimStyleTableRecord
  2
ME10_DIM_12
 70
     0
 41
3.5
 42
0.0
 44
2.0
 73
     0
 74
     0
 77
     1
 78
     8
140
3.5
147
2.0
172
     1
173
     1
176
     2
177
     2
178
     2
271
     3
340
135
  0
DIMSTYLE
105
15A
102
{ACAD_REACTORS
330
15B
102
}
330
A
100
AcDbSymbolTableRecord
100
AcDbDimStyleTableRecord
  2
ME10_DIM_13
 70
     0
 41
3.5
 42
0.0
 44
2.0
 73
     0
 74
     0
 77
     1
 78
     8
140
3.5
147
2.0
172
     1
173
     1
176
     2
177
     2
178
     2
271
     3
340
135
  0
DIMSTYLE
105
165
102
{ACAD_REACTORS
330
166
102
}
330
A
100
AcDbSymbolTableRecord
100
AcDbDimStyleTableRecord
  2
ME10_DIM_14
 70
     0
 41
3.5
 42
0.0
 44
2.0
 73
     0
 74
     0
 77
     1
 78
     8
140
3.5
147
2.0
172
     1
173
     1
176
     2
177
     2
178
     2
271
     3
340
135
  0
DIMSTYLE
105
170
102
{ACAD_REACTORS
330
171
102
}
330
A
100
AcDbSymbolTableRecord
100
AcDbDimStyleTableRecord
  2
ME10_DIM_15
 70
     0
 41
3.5
 42
0.0
 44
2.0
 73
     0
 74
     0
 77
     1
 78
     8
140
3.5
147
2.0
172
     1
173
     1
176
     2
177
     2
178
     2
271
     3
340
135
  0
DIMSTYLE
105
17D
102
{ACAD_REACTORS
330
17E
102
}
330
A
100
AcDbSymbolTableRecord
100
AcDbDimStyleTableRecord
  2
ME10_DIM_16
 70
     0
 41
3.5
 42
0.0
 44
2.0
 73
     0
 74
     0
 77
     1
 78
     8
140
3.5
147
2.0
172
     1
173
     1
176
     2
177
     2
178
     2
271
     3
340
135
  0
DIMSTYLE
105
18A
102
{ACAD_REACTORS
330
18B
102
}
330
A
100
AcDbSymbolTableRecord
100
AcDbDimStyleTableRecord
  2
ME10_DIM_17
 70
     0
 41
3.5
 42
0.0
 44
2.0
 73
     0
 74
     0
 77
     1
 78
     8
140
3.5
147
2.0
172
     1
173
     1
176
     2
177
     2
178
     2
271
     3
340
135
  0
ENDTAB
  0
TABLE
  2
BLOCK_RECORD
  5
1
330
0
100
AcDbSymbolTable
 70
     9
  0
BLOCK_RECORD
  5
1F
330
1
100
AcDbSymbolTableRecord
100
AcDbBlockTableRecord
  2
*Model_Space
340
22
  0
BLOCK_RECORD
  5
1B
330
1
100
AcDbSymbolTableRecord
100
AcDbBlockTableRecord
  2
*Paper_Space
340
1E
  0
BLOCK_RECORD
  5
23
330
1
100
AcDbSymbolTableRecord
100
AcDbBlockTableRecord
  2
*Paper_Space0
340
26
  0
BLOCK_RECORD
  5
12F
330
1
100
AcDbSymbolTableRecord
100
AcDbBlockTableRecord
  2
*D1
340
0
  0
BLOCK_RECORD
  5
13B
330
1
100
AcDbSymbolTableRecord
100
AcDbBlockTableRecord
  2
*D2
340
0
  0
BLOCK_RECORD
  5
146
330
1
100
AcDbSymbolTableRecord
100
AcDbBlockTableRecord
  2
*D3
340
0
  0
BLOCK_RECORD
  5
151
330
1
100
AcDbSymbolTableRecord
100
AcDbBlockTableRecord
  2
*D4
340
0
  0
BLOCK_RECORD
  5
15C
330
1
100
AcDbSymbolTableRecord
100
AcDbBlockTableRecord
  2
*D5
340
0
  0
BLOCK_RECORD
  5
167
330
1
100
AcDbSymbolTableRecord
100
AcDbBlockTableRecord
  2
*D6
340
0
  0
BLOCK_RECORD
  5
172
330
1
100
AcDbSymbolTableRecord
100
AcDbBlockTableRecord
  2
*D7
340
0
  0
BLOCK_RECORD
  5
17F
330
1
100
AcDbSymbolTableRecord
100
AcDbBlockTableRecord
  2
*D8
340
0
  0
ENDTAB
  0
ENDSEC
  0
SECTION
  2
BLOCKS
  0
BLOCK
  5
20
330
1F
100
AcDbEntity
  8
0
100
AcDbBlockBegin
  2
*Model_Space
 70
     0
 71
     0
 10
0.0
 20
0.0
 30
0.0
  3
*Model_Space
  1

  0
ENDBLK
  5
21
330
1F
100
AcDbEntity
  8
0
100
AcDbBlockEnd
  0
BLOCK
  5
1C
330
1B
100
AcDbEntity
 67
     1
  8
0
100
AcDbBlockBegin
  2
*Paper_Space
 70
     0
 71
     0
 10
0.0
 20
0.0
 30
0.0
  3
*Paper_Space
  1

  0
ENDBLK
  5
1D
330
1B
100
AcDbEntity
 67
     1
  8
0
100
AcDbBlockEnd
  0
BLOCK
  5
24
330
23
100
AcDbEntity
  8
0
100
AcDbBlockBegin
  2
*Paper_Space0
 70
     0
 71
     0
 10
0.0
 20
0.0
 30
0.0
  3
*Paper_Space0
  1

  0
ENDBLK
  5
25
330
23
100
AcDbEntity
  8
0
100
AcDbBlockEnd
  0
BLOCK
  5
137
330
12F
100
AcDbEntity
  8
0
100
AcDbBlockBegin
  2
*D1
 70
     1
 71
     0
 10
0.0
 20
0.0
 30
0.0
  3
*D1
  1

  0
LINE
  5
130
330
12F
100
AcDbEntity
  8
1
  6
Continuous
 62
     2
100
AcDbLine
 10
157.971345540467
 20
-184.3452369788284
 30
0.0
 11
157.971345540467
 21
-205.3452369788284
 31
0.0
  0
LINE
  5
131
330
12F
100
AcDbEntity
  8
1
  6
Continuous
 62
     2
100
AcDbLine
 10
211.6092528042418
 20
-205.3452369788284
 30
0.0
 11
155.971345540467
 21
-205.3452369788284
 31
0.0
  0
LINE
  5
132
330
12F
100
AcDbEntity
  8
1
  6
Continuous
 62
     2
100
AcDbLine
 10
220.1092528042418
 20
-184.3452369788284
 30
0.0
 11
155.971345540467
 21
-184.3452369788284
 31
0.0
  0
SOLID
  5
133
330
12F
100
AcDbEntity
  8
1
 62
     2
100
AcDbTrace
 10
158.4321292820229
 20
-187.8452369788284
 30
0.0
 11
157.5105617989111
 21
-187.8452369788284
 31
0.0
 12
157.971345540467
 22
-184.3452369788284
 32
0.0
 13
157.971345540467
 23
-184.3452369788284
 33
0.0
  0
SOLID
  5
134
330
12F
100
AcDbEntity
  8
1
 62
     2
100
AcDbTrace
 10
157.5105617989111
 20
-201.8452369788284
 30
0.0
 11
158.4321292820229
 21
-201.8452369788284
 31
0.0
 12
157.971345540467
 22
-205.3452369788284
 32
0.0
 13
157.971345540467
 23
-205.3452369788284
 33
0.0
  0
MTEXT
  5
136
330
12F
100
AcDbEntity
  8
1
 62
     2
100
AcDbMText
 10
155.971345540467
 20
-198.126222501125
 30
0.0
 40
3.5
 41
0.0
 71
     7
 72
     1
  1
21
  7
CONVERTER_11
 11
0.0
 21
1.0
 31
0.0
 73
     1
 44
0.60024009603842
  0
ENDBLK
  5
138
330
12F
100
AcDbEntity
  8
0
100
AcDbBlockEnd
  0
BLOCK
  5
142
330
13B
100
AcDbEntity
  8
0
100
AcDbBlockBegin
  2
*D2
 70
     1
 71
     0
 10
0.0
 20
0.0
 30
0.0
  3
*D2
  1

  0
LINE
  5
13C
330
13B
100
AcDbEntity
  8
1
  6
Continuous
 62
     2
100
AcDbLine
 10
224.6092528042418
 20
-228.540427362849
 30
0.0
 11
251.3092528042419
 21
-228.540427362849
 31
0.0
  0
LINE
  5
13D
330
13B
100
AcDbEntity
  8
1
  6
Continuous
 62
     2
100
AcDbLine
 10
224.6092528042418
 20
-208.3452369788284
 30
0.0
 11
224.6092528042418
 21
-230.540427362849
 31
0.0
  0
LINE
  5
13E
330
13B
100
AcDbEntity
  8
1
  6
Continuous
 62
     2
100
AcDbLine
 10
251.3092528042419
 20
-196.3452369788284
 30
0.0
 11
251.3092528042419
 21
-230.540427362849
 31
0.0
  0
SOLID
  5
13F
330
13B
100
AcDbEntity
  8
1
 62
     2
100
AcDbTrace
 10
228.1092528042418
 20
-228.0796436212931
 30
0.0
 11
228.1092528042418
 21
-229.0012111044049
 31
0.0
 12
224.6092528042418
 22
-228.540427362849
 32
0.0
 13
224.6092528042418
 23
-228.540427362849
 33
0.0
  0
SOLID
  5
140
330
13B
100
AcDbEntity
  8
1
 62
     2
100
AcDbTrace
 10
247.8092528042419
 20
-229.0012111044049
 30
0.0
 11
247.8092528042419
 21
-228.0796436212931
 31
0.0
 12
251.3092528042419
 22
-228.540427362849
 32
0.0
 13
251.3092528042419
 23
-228.540427362849
 33
0.0
  0
MTEXT
  5
141
330
13B
100
AcDbEntity
  8
1
 62
     2
100
AcDbMText
 10
234.866473231546
 20
-226.540427362849
 30
0.0
 40
3.5
 41
0.0
 71
     7
 72
     1
  1
27
  7
CONVERTER_11
 11
0.9999999999970621
 21
2.424068405545307E-6
 31
0.0
 73
     1
 44
0.60024009603842
  0
ENDBLK
  5
143
330
13B
100
AcDbEntity
  8
0
100
AcDbBlockEnd
  0
BLOCK
  5
14D
330
146
100
AcDbEntity
  8
0
100
AcDbBlockBegin
  2
*D3
 70
     1
 71
     0
 10
0.0
 20
0.0
 30
0.0
  3
*D3
  1

  0
LINE
  5
147
330
146
100
AcDbEntity
  8
1
  6
Continuous
 62
     2
100
AcDbLine
 10
197.6092528042418
 20
-228.603158173665
 30
0.0
 11
221.6092528042421
 21
-228.603158173665
 31
0.0
  0
LINE
  5
148
330
146
100
AcDbEntity
  8
1
  6
Continuous
 62
     2
100
AcDbLine
 10
197.6092528042418
 20
-199.6980618638284
 30
0.0
 11
197.6092528042418
 21
-230.603158173665
 31
0.0
  0
LINE
  5
149
330
146
100
AcDbEntity
  8
1
  6
Continuous
 62
     2
100
AcDbLine
 10
221.6092528042421
 20
-208.3452369788283
 30
0.0
 11
221.6092528042421
 21
-230.603158173665
 31
0.0
  0
SOLID
  5
14A
330
146
100
AcDbEntity
  8
1
 62
     2
100
AcDbTrace
 10
201.1092528042418
 20
-228.1423744321091
 30
0.0
 11
201.1092528042418
 21
-229.0639419152209
 31
0.0
 12
197.6092528042418
 22
-228.603158173665
 32
0.0
 13
197.6092528042418
 23
-228.603158173665
 33
0.0
  0
SOLID
  5
14B
330
146
100
AcDbEntity
  8
1
 62
     2
100
AcDbTrace
 10
218.1092528042421
 20
-229.0639419152209
 30
0.0
 11
218.1092528042421
 21
-228.1423744321091
 31
0.0
 12
221.6092528042421
 22
-228.603158173665
 32
0.0
 13
221.6092528042421
 23
-228.603158173665
 33
0.0
  0
MTEXT
  5
14C
330
146
100
AcDbEntity
  8
1
 62
     2
100
AcDbMText
 10
207.779202264738
 20
-226.603158173665
 30
0.0
 40
3.5
 41
0.0
 71
     7
 72
     1
  1
24
  7
CONVERTER_11
 11
0.9999999999970621
 21
2.424068405545307E-6
 31
0.0
 73
     1
 44
0.60024009603842
  0
ENDBLK
  5
14E
330
146
100
AcDbEntity
  8
0
100
AcDbBlockEnd
  0
BLOCK
  5
158
330
151
100
AcDbEntity
  8
0
100
AcDbBlockBegin
  2
*D4
 70
     1
 71
     0
 10
0.0
 20
0.0
 30
0.0
  3
*D4
  1

  0
LINE
  5
152
330
151
100
AcDbEntity
  8
1
  6
Continuous
 62
     2
100
AcDbLine
 10
168.466943950804
 20
-184.3452369788284
 30
0.0
 11
168.466943950804
 21
-202.3452369788284
 31
0.0
  0
LINE
  5
153
330
151
100
AcDbEntity
  8
1
  6
Continuous
 62
     2
100
AcDbLine
 10
204.0742893982418
 20
-202.3452369788284
 30
0.0
 11
166.466943950804
 21
-202.3452369788284
 31
0.0
  0
LINE
  5
154
330
151
100
AcDbEntity
  8
1
  6
Continuous
 62
     2
100
AcDbLine
 10
204.0742893982418
 20
-184.3452369788284
 30
0.0
 11
166.466943950804
 21
-184.3452369788284
 31
0.0
  0
SOLID
  5
155
330
151
100
AcDbEntity
  8
1
 62
     2
100
AcDbTrace
 10
168.9277276923599
 20
-187.8452369788284
 30
0.0
 11
168.0061602092481
 21
-187.8452369788284
 31
0.0
 12
168.466943950804
 22
-184.3452369788284
 32
0.0
 13
168.466943950804
 23
-184.3452369788284
 33
0.0
  0
SOLID
  5
156
330
151
100
AcDbEntity
  8
1
 62
     2
100
AcDbTrace
 10
168.0061602092481
 20
-198.8452369788284
 30
0.0
 11
168.9277276923599
 21
-198.8452369788284
 31
0.0
 12
168.466943950804
 22
-202.3452369788284
 32
0.0
 13
168.466943950804
 23
-202.3452369788284
 33
0.0
  0
MTEXT
  5
157
330
151
100
AcDbEntity
  8
1
 62
     2
100
AcDbMText
 10
166.466943950804
 20
-196.933853172573
 30
0.0
 40
3.5
 41
0.0
 71
     7
 72
     1
  1
18
  7
CONVERTER_11
 11
0.0
 21
1.0
 31
0.0
 73
     1
 44
0.60024009603842
  0
ENDBLK
  5
159
330
151
100
AcDbEntity
  8
0
100
AcDbBlockEnd
  0
BLOCK
  5
163
330
15C
100
AcDbEntity
  8
0
100
AcDbBlockBegin
  2
*D5
 70
     1
 71
     0
 10
0.0
 20
0.0
 30
0.0
  3
*D5
  1

  0
LINE
  5
15D
330
15C
100
AcDbEntity
  8
1
  6
Continuous
 62
     2
100
AcDbLine
 10
278.959139545955
 20
-186.3452369788284
 30
0.0
 11
278.959139545955
 21
-202.3452369788284
 31
0.0
  0
LINE
  5
15E
330
15C
100
AcDbEntity
  8
1
  6
Continuous
 62
     2
100
AcDbLine
 10
244.3092528042419
 20
-202.3452369788284
 30
0.0
 11
280.959139545955
 21
-202.3452369788284
 31
0.0
  0
LINE
  5
15F
330
15C
100
AcDbEntity
  8
1
  6
Continuous
 62
     2
100
AcDbLine
 10
244.3092528042419
 20
-186.3452369788284
 30
0.0
 11
280.959139545955
 21
-186.3452369788284
 31
0.0
  0
SOLID
  5
160
330
15C
100
AcDbEntity
  8
1
 62
     2
100
AcDbTrace
 10
279.4199232875109
 20
-189.8452369788284
 30
0.0
 11
278.4983558043991
 21
-189.8452369788284
 31
0.0
 12
278.959139545955
 22
-186.3452369788284
 32
0.0
 13
278.959139545955
 23
-186.3452369788284
 33
0.0
  0
SOLID
  5
161
330
15C
100
AcDbEntity
  8
1
 62
     2
100
AcDbTrace
 10
278.4983558043991
 20
-198.8452369788284
 30
0.0
 11
279.4199232875109
 21
-198.8452369788284
 31
0.0
 12
278.959139545955
 22
-202.3452369788284
 32
0.0
 13
278.959139545955
 23
-202.3452369788284
 33
0.0
  0
MTEXT
  5
162
330
15C
100
AcDbEntity
  8
1
 62
     2
100
AcDbMText
 10
276.959139545955
 20
-195.336106940393
 30
0.0
 40
3.5
 41
0.0
 71
     7
 72
     1
  1
16
  7
CONVERTER_11
 11
0.0
 21
1.0
 31
0.0
 73
     1
 44
0.60024009603842
  0
ENDBLK
  5
164
330
15C
100
AcDbEntity
  8
0
100
AcDbBlockEnd
  0
BLOCK
  5
16E
330
167
100
AcDbEntity
  8
0
100
AcDbBlockBegin
  2
*D6
 70
     1
 71
     0
 10
0.0
 20
0.0
 30
0.0
  3
*D6
  1

  0
LINE
  5
168
330
167
100
AcDbEntity
  8
1
  6
Continuous
 62
     2
100
AcDbLine
 10
289.613060893123
 20
-186.3452369788284
 30
0.0
 11
289.613060893123
 21
-204.3452369788284
 31
0.0
  0
LINE
  5
169
330
167
100
AcDbEntity
  8
1
  6
Continuous
 62
     2
100
AcDbLine
 10
234.6092528042418
 20
-204.3452369788284
 30
0.0
 11
291.613060893123
 21
-204.3452369788284
 31
0.0
  0
LINE
  5
16A
330
167
100
AcDbEntity
  8
1
  6
Continuous
 62
     2
100
AcDbLine
 10
244.3092528042419
 20
-186.3452369788284
 30
0.0
 11
291.613060893123
 21
-186.3452369788284
 31
0.0
  0
SOLID
  5
16B
330
167
100
AcDbEntity
  8
1
 62
     2
100
AcDbTrace
 10
290.0738446346789
 20
-189.8452369788284
 30
0.0
 11
289.1522771515671
 21
-189.8452369788284
 31
0.0
 12
289.613060893123
 22
-186.3452369788284
 32
0.0
 13
289.613060893123
 23
-186.3452369788284
 33
0.0
  0
SOLID
  5
16C
330
167
100
AcDbEntity
  8
1
 62
     2
100
AcDbTrace
 10
289.1522771515671
 20
-200.8452369788284
 30
0.0
 11
290.0738446346789
 21
-200.8452369788284
 31
0.0
 12
289.613060893123
 22
-204.3452369788284
 32
0.0
 13
289.613060893123
 23
-204.3452369788284
 33
0.0
  0
MTEXT
  5
16D
330
167
100
AcDbEntity
  8
1
 62
     2
100
AcDbMText
 10
287.613060893123
 20
-196.906644766722
 30
0.0
 40
3.5
 41
0.0
 71
     7
 72
     1
  1
18
  7
CONVERTER_11
 11
0.0
 21
1.0
 31
0.0
 73
     1
 44
0.60024009603842
  0
ENDBLK
  5
16F
330
167
100
AcDbEntity
  8
0
100
AcDbBlockEnd
  0
BLOCK
  5
17B
330
172
100
AcDbEntity
  8
0
100
AcDbBlockBegin
  2
*D7
 70
     1
 71
     0
 10
0.0
 20
0.0
 30
0.0
  3
*D7
  1

  0
LINE
  5
173
330
172
100
AcDbEntity
  8
1
  6
Continuous
 62
     2
100
AcDbLine
 10
289.613060893123
 20
-197.3452369788284
 30
0.0
 11
289.613060893123
 21
-204.3452369788284
 31
0.0
  0
LINE
  5
174
330
172
100
AcDbEntity
  8
1
  6
Continuous
 62
     2
100
AcDbLine
 10
289.613060893123
 20
-204.3452369788284
 30
0.0
 11
289.613060893123
 21
-208.3452369788284
 31
0.0
  0
LINE
  5
175
330
172
100
AcDbEntity
  8
1
  6
Continuous
 62
     2
100
AcDbLine
 10
289.613060893123
 20
-208.3452369788284
 30
0.0
 11
289.613060893123
 21
-215.3452369788284
 31
0.0
  0
LINE
  5
176
330
172
100
AcDbEntity
  8
1
  6
Continuous
 62
     2
100
AcDbLine
 10
269.609252804242
 20
-208.3452369788284
 30
0.0
 11
291.613060893123
 21
-208.3452369788284
 31
0.0
  0
LINE
  5
177
330
172
100
AcDbEntity
  8
1
  6
Continuous
 62
     2
100
AcDbLine
 10
234.6092528042418
 20
-204.3452369788284
 30
0.0
 11
291.613060893123
 21
-204.3452369788284
 31
0.0
  0
SOLID
  5
178
330
172
100
AcDbEntity
  8
1
 62
     2
100
AcDbTrace
 10
289.1522771515671
 20
-200.8452369788284
 30
0.0
 11
290.0738446346789
 21
-200.8452369788284
 31
0.0
 12
289.613060893123
 22
-204.3452369788284
 32
0.0
 13
289.613060893123
 23
-204.3452369788284
 33
0.0
  0
SOLID
  5
179
330
172
100
AcDbEntity
  8
1
 62
     2
100
AcDbTrace
 10
290.0738446346789
 20
-211.8452369788284
 30
0.0
 11
289.1522771515671
 21
-211.8452369788284
 31
0.0
 12
289.613060893123
 22
-208.3452369788284
 32
0.0
 13
289.613060893123
 23
-208.3452369788284
 33
0.0
  0
MTEXT
  5
17A
330
172
100
AcDbEntity
  8
1
 62
     2
100
AcDbMText
 10
287.613060893123
 20
-213.54357660346
 30
0.0
 40
3.5
 41
0.0
 71
     7
 72
     1
  1
4
  7
CONVERTER_11
 11
0.0
 21
1.0
 31
0.0
 73
     1
 44
0.60024009603842
  0
ENDBLK
  5
17C
330
172
100
AcDbEntity
  8
0
100
AcDbBlockEnd
  0
BLOCK
  5
188
330
17F
100
AcDbEntity
  8
0
100
AcDbBlockBegin
  2
*D8
 70
     1
 71
     0
 10
0.0
 20
0.0
 30
0.0
  3
*D8
  1

  0
LINE
  5
180
330
17F
100
AcDbEntity
  8
1
  6
Continuous
 62
     2
100
AcDbLine
 10
224.6092528042418
 20
-218.5784634498689
 30
0.0
 11
231.6092528042418
 21
-218.5784634498689
 31
0.0
  0
LINE
  5
181
330
17F
100
AcDbEntity
  8
1
  6
Continuous
 62
     2
100
AcDbLine
 10
221.6092528042421
 20
-218.5784634498689
 30
0.0
 11
224.6092528042418
 21
-218.5784634498689
 31
0.0
  0
LINE
  5
182
330
17F
100
AcDbEntity
  8
1
  6
Continuous
 62
     2
100
AcDbLine
 10
214.6092528042421
 20
-218.5784634498689
 30
0.0
 11
221.6092528042421
 21
-218.5784634498689
 31
0.0
  0
LINE
  5
183
330
17F
100
AcDbEntity
  8
1
  6
Continuous
 62
     2
100
AcDbLine
 10
221.6092528042421
 20
-208.3452369788283
 30
0.0
 11
221.6092528042421
 21
-220.5784634498689
 31
0.0
  0
LINE
  5
184
330
17F
100
AcDbEntity
  8
1
  6
Continuous
 62
     2
100
AcDbLine
 10
224.6092528042418
 20
-208.3452369788284
 30
0.0
 11
224.6092528042418
 21
-220.5784634498689
 31
0.0
  0
SOLID
  5
185
330
17F
100
AcDbEntity
  8
1
 62
     2
100
AcDbTrace
 10
218.1092528042421
 20
-219.0392471914248
 30
0.0
 11
218.1092528042421
 21
-218.117679708313
 31
0.0
 12
221.6092528042421
 22
-218.5784634498689
 32
0.0
 13
221.6092528042421
 23
-218.5784634498689
 33
0.0
  0
SOLID
  5
186
330
17F
100
AcDbEntity
  8
1
 62
     2
100
AcDbTrace
 10
228.1092528042418
 20
-218.117679708313
 30
0.0
 11
228.1092528042418
 21
-219.0392471914248
 31
0.0
 12
224.6092528042418
 22
-218.5784634498689
 32
0.0
 13
224.6092528042418
 23
-218.5784634498689
 33
0.0
  0
MTEXT
  5
187
330
17F
100
AcDbEntity
  8
1
 62
     2
100
AcDbMText
 10
216.1980544254361
 20
-216.5784634498689
 30
0.0
 40
3.5
 41
0.0
 71
     7
 72
     1
  1
3
  7
CONVERTER_11
 11
0.9999999999970621
 21
2.424068405545307E-6
 31
0.0
 73
     1
 44
0.60024009603842
  0
ENDBLK
  5
189
330
17F
100
AcDbEntity
  8
0
100
AcDbBlockEnd
  0
ENDSEC
  0
SECTION
  2
ENTITIES
  0
POINT
  5
33
330
1F
100
AcDbEntity
  8
1
 62
     3
 60
     1
100
AcDbPoint
 10
224.609252804242
 20
-184.3452369788284
 30
0.0
  0
POINT
  5
34
330
1F
100
AcDbEntity
  8
1
 62
     3
 60
     1
100
AcDbPoint
 10
269.609252804242
 20
-168.3452369788284
 30
0.0
  0
POINT
  5
35
330
1F
100
AcDbEntity
  8
1
 62
     3
 60
     1
100
AcDbPoint
 10
237.6092528042421
 20
-168.3452369788284
 30
0.0
  0
POINT
  5
36
330
1F
100
AcDbEntity
  8
1
 62
     3
 60
     1
100
AcDbPoint
 10
237.6092528042421
 20
-184.3452369788284
 30
0.0
  0
POINT
  5
37
330
1F
100
AcDbEntity
  8
1
 62
     3
 60
     1
100
AcDbPoint
 10
215.1132328518388
 20
-197.9873387683634
 30
0.0
  0
POINT
  5
38
330
1F
100
AcDbEntity
  8
1
 62
     3
 60
     1
100
AcDbPoint
 10
210.6038607371418
 20
-175.4082292170284
 30
0.0
  0
POINT
  5
39
330
1F
100
AcDbEntity
  8
1
 62
     3
 60
     1
100
AcDbPoint
 10
206.3042418438488
 20
-191.8296756323854
 30
0.0
  0
POINT
  5
3A
330
1F
100
AcDbEntity
  8
1
 62
     3
 60
     1
100
AcDbPoint
 10
202.5339594676968
 20
-190.4454002536324
 30
0.0
  0
POINT
  5
3B
330
1F
100
AcDbEntity
  8
1
 62
     3
 60
     1
100
AcDbPoint
 10
231.1052727566448
 20
-197.9873387683634
 30
0.0
  0
POINT
  5
3C
330
1F
100
AcDbEntity
  8
1
 62
     3
 60
     1
100
AcDbPoint
 10
243.6845461407868
 20
-190.4454002536324
 30
0.0
  0
POINT
  5
3D
330
1F
100
AcDbEntity
  8
1
 62
     3
 60
     1
100
AcDbPoint
 10
239.9142637646348
 20
-191.8296756323854
 30
0.0
  0
POINT
  5
3E
330
1F
100
AcDbEntity
  8
1
 62
     3
 60
     1
100
AcDbPoint
 10
216.2784096177628
 20
-191.7415089813964
 30
0.0
  0
POINT
  5
3F
330
1F
100
AcDbEntity
  8
1
 62
     3
 60
     1
100
AcDbPoint
 10
221.3092528601038
 20
-186.7452370533074
 30
0.0
  0
POINT
  5
40
330
1F
100
AcDbEntity
  8
1
 62
     3
 60
     1
100
AcDbPoint
 10
218.055578428479
 20
-189.9612940408878
 30
0.0
  0
POINT
  5
41
330
1F
100
AcDbEntity
  8
1
 62
     3
 60
     1
100
AcDbPoint
 10
202.9345883274449
 20
-190.5519700265546
 30
0.0
  0
POINT
  5
42
330
1F
100
AcDbEntity
  8
1
 62
     3
 60
     1
100
AcDbPoint
 10
216.7535396536239
 20
-192.2610289753921
 30
0.0
  0
POINT
  5
43
330
1F
100
AcDbEntity
  8
1
 62
     3
 60
     1
100
AcDbPoint
 10
220.9402874753716
 20
-187.0716418394263
 30
0.0
  0
POINT
  5
44
330
1F
100
AcDbEntity
  8
1
 62
     3
 60
     1
100
AcDbPoint
 10
228.1629271800047
 20
-189.9612940408878
 30
0.0
  0
POINT
  5
45
330
1F
100
AcDbEntity
  8
1
 62
     3
 60
     1
100
AcDbPoint
 10
229.4649659548597
 20
-192.2610289753921
 30
0.0
  0
POINT
  5
46
330
1F
100
AcDbEntity
  8
1
 62
     3
 60
     1
100
AcDbPoint
 10
229.9400959907208
 20
-191.7415089813964
 30
0.0
  0
POINT
  5
47
330
1F
100
AcDbEntity
  8
1
 62
     3
 60
     1
100
AcDbPoint
 10
243.2839172810387
 20
-190.5519700265546
 30
0.0
  0
POINT
  5
48
330
1F
100
AcDbEntity
  8
1
 62
     3
 60
     1
100
AcDbPoint
 10
223.1092528042418
 20
-189.8877369788284
 30
0.0
  0
LINE
  5
49
330
1F
100
AcDbEntity
  8
1
  6
Continuous
 62
     7
100
AcDbLine
 10
221.6092528042421
 20
-184.3452369788283
 30
0.0
 11
221.6092528042421
 21
-186.5471607674748
 31
0.0
  0
LINE
  5
4A
330
1F
100
AcDbEntity
  8
1
  6
Continuous
 62
     7
100
AcDbLine
 10
221.6092528042421
 20
-208.3452369788283
 30
0.0
 11
178.609252804242
 21
-208.3452369788284
 31
0.0
  0
LINE
  5
4B
330
1F
100
AcDbEntity
  8
1
  6
Continuous
 62
     7
100
AcDbLine
 10
234.6092528042421
 20
-179.3452369788284
 30
0.0
 11
234.6092528042421
 21
-117.5599502096961
 31
0.0
  0
LINE
  5
4C
330
1F
100
AcDbEntity
  8
1
  6
Continuous
 62
     7
100
AcDbLine
 10
221.6092528042421
 20
-179.3452369788283
 30
0.0
 11
234.6092528042421
 21
-179.3452369788284
 31
0.0
  0
LINE
  5
4D
330
1F
100
AcDbEntity
  8
1
  6
Continuous
 62
     7
100
AcDbLine
 10
222.6092528042421
 20
-181.0772877863973
 30
0.0
 11
222.6092528042421
 21
-180.3452369788284
 31
0.0
  0
LINE
  5
4E
330
1F
100
AcDbEntity
  8
1
  6
Continuous
 62
     7
100
AcDbLine
 10
223.9186538810005
 20
-183.3452369788284
 30
0.0
 11
222.6092528042421
 21
-181.0772877863973
 31
0.0
  0
LINE
  5
4F
330
1F
100
AcDbEntity
  8
1
  6
Continuous
 62
     7
100
AcDbLine
 10
232.2998517274836
 20
-183.3452369788284
 30
0.0
 11
223.9186538810005
 21
-183.3452369788284
 31
0.0
  0
LINE
  5
50
330
1F
100
AcDbEntity
  8
1
  6
Continuous
 62
     7
100
AcDbLine
 10
233.6092528042421
 20
-181.0772877863973
 30
0.0
 11
232.2998517274836
 21
-183.3452369788284
 31
0.0
  0
LINE
  5
51
330
1F
100
AcDbEntity
  8
1
  6
Continuous
 62
     7
100
AcDbLine
 10
233.6092528042421
 20
-180.3452369788284
 30
0.0
 11
233.6092528042421
 21
-181.0772877863973
 31
0.0
  0
LINE
  5
52
330
1F
100
AcDbEntity
  8
1
  6
Continuous
 62
     7
100
AcDbLine
 10
222.6092528042421
 20
-180.3452369788284
 30
0.0
 11
233.6092528042421
 21
-180.3452369788284
 31
0.0
  0
LINE
  5
53
330
1F
100
AcDbEntity
  8
1
  6
Continuous
 62
     7
100
AcDbLine
 10
234.6092528042421
 20
-181.3452369788284
 30
0.0
 11
234.6092528042421
 21
-179.3452369788284
 31
0.0
  0
LINE
  5
54
330
1F
100
AcDbEntity
  8
1
  6
Continuous
 62
     7
100
AcDbLine
 10
232.8772019966732
 20
-184.3452369788284
 30
0.0
 11
234.6092528042421
 21
-181.3452369788284
 31
0.0
  0
LINE
  5
55
330
1F
100
AcDbEntity
  8
1
  6
Continuous
 62
     7
100
AcDbLine
 10
223.3413036118109
 20
-184.3452369788284
 30
0.0
 11
232.8772019966732
 21
-184.3452369788284
 31
0.0
  0
LINE
  5
56
330
1F
100
AcDbEntity
  8
1
  6
Continuous
 62
     7
100
AcDbLine
 10
221.6092528042421
 20
-181.3452369788284
 30
0.0
 11
223.3413036118109
 21
-184.3452369788284
 31
0.0
  0
LINE
  5
57
330
1F
100
AcDbEntity
  8
1
  6
Continuous
 62
     7
100
AcDbLine
 10
221.6092528042421
 20
-179.3452369788283
 30
0.0
 11
221.6092528042421
 21
-184.3452369788283
 31
0.0
  0
LINE
  5
58
330
1F
100
AcDbEntity
  8
1
  6
Continuous
 62
     7
100
AcDbLine
 10
221.6092528042421
 20
-205.3452369788283
 30
0.0
 11
221.6092528042421
 21
-208.3452369788283
 31
0.0
  0
LINE
  5
59
330
1F
100
AcDbEntity
  8
1
  6
Continuous
 62
     7
100
AcDbLine
 10
221.6092528042421
 20
-205.3452369788283
 30
0.0
 11
221.6092528042421
 21
-205.3452365919166
 31
0.0
  0
LINE
  5
5A
330
1F
100
AcDbEntity
  8
1
  6
DASHED
 62
     2
100
AcDbLine
 10
209.8592528042419
 20
-159.5952369788284
 30
0.0
 11
207.6092528042419
 21
-157.3452369788283
 31
0.0
  0
LINE
  5
5B
330
1F
100
AcDbEntity
  8
1
  6
DASHED
 62
     2
100
AcDbLine
 10
211.6092528042419
 20
-159.5952369788284
 30
0.0
 11
209.8592528042419
 21
-159.5952369788284
 31
0.0
  0
LINE
  5
5C
330
1F
100
AcDbEntity
  8
1
  6
DASHED
 62
     2
100
AcDbLine
 10
209.8592528042419
 20
-148.0952369788284
 30
0.0
 11
209.8592528042419
 21
-142.5952369788284
 31
0.0
  0
LINE
  5
5D
330
1F
100
AcDbEntity
  8
1
  6
DASHED
 62
     2
100
AcDbLine
 10
209.8592528042419
 20
-142.5952369788284
 30
0.0
 11
207.6092528042419
 21
-140.3452369788284
 31
0.0
  0
LINE
  5
5E
330
1F
100
AcDbEntity
  8
1
  6
DASHED
 62
     2
100
AcDbLine
 10
211.6092528042419
 20
-142.5952369788284
 30
0.0
 11
209.8592528042419
 21
-142.5952369788284
 31
0.0
  0
LINE
  5
5F
330
1F
100
AcDbEntity
  8
1
  6
DASHED
 62
     2
100
AcDbLine
 10
209.8592528042419
 20
-148.0952369788284
 30
0.0
 11
207.6092528042419
 21
-150.3452369788284
 31
0.0
  0
LINE
  5
60
330
1F
100
AcDbEntity
  8
1
  6
DASHED
 62
     2
100
AcDbLine
 10
211.6092528042419
 20
-148.0952369788284
 30
0.0
 11
209.8592528042419
 21
-148.0952369788284
 31
0.0
  0
LINE
  5
61
330
1F
100
AcDbEntity
  8
1
  6
Continuous
 62
     7
100
AcDbLine
 10
211.609252804242
 20
-135.3452369788284
 30
0.0
 11
207.609252804242
 21
-135.3452369788284
 31
0.0
  0
LINE
  5
62
330
1F
100
AcDbEntity
  8
1
  6
DOT_CENTER
 62
     2
100
AcDbLine
 10
211.609252804242
 20
-117.5599502096961
 30
0.0
 11
207.3773826702092
 21
-117.5599502096961
 31
0.0
  0
LINE
  5
63
330
1F
100
AcDbEntity
  8
1
  6
DASHED
 62
     2
100
AcDbLine
 10
209.8592528042419
 20
-165.0952369788284
 30
0.0
 11
209.8592528042419
 21
-159.5952369788284
 31
0.0
  0
LINE
  5
64
330
1F
100
AcDbEntity
  8
1
  6
DASHED
 62
     2
100
AcDbLine
 10
209.8592528042419
 20
-165.0952369788284
 30
0.0
 11
207.6092528042419
 21
-167.3452369788284
 31
0.0
  0
LINE
  5
65
330
1F
100
AcDbEntity
  8
1
  6
DASHED
 62
     2
100
AcDbLine
 10
211.6092528042419
 20
-165.0952369788284
 30
0.0
 11
209.8592528042419
 21
-165.0952369788284
 31
0.0
  0
LINE
  5
66
330
1F
100
AcDbEntity
  8
1
  6
Continuous
 62
     7
100
AcDbLine
 10
211.609252804242
 20
-184.3452369788283
 30
0.0
 11
211.609252804242
 21
-117.5599502096961
 31
0.0
  0
LINE
  5
67
330
1F
100
AcDbEntity
  8
1
  6
Continuous
 62
     7
100
AcDbLine
 10
207.609252804242
 20
-135.3452369788284
 30
0.0
 11
207.6092528042421
 21
-184.3452369788283
 31
0.0
  0
LINE
  5
68
330
1F
100
AcDbEntity
  8
1
  6
PHANTOM
 62
     2
100
AcDbLine
 10
228.109252804242
 20
-162.3452369788284
 30
0.0
 11
206.109252804242
 21
-162.3452369788284
 31
0.0
  0
LINE
  5
69
330
1F
100
AcDbEntity
  8
1
  6
PHANTOM
 62
     2
100
AcDbLine
 10
228.109252804242
 20
-145.3452369788284
 30
0.0
 11
206.109252804242
 21
-145.3452369788284
 31
0.0
  0
LINE
  5
6A
330
1F
100
AcDbEntity
  8
1
  6
DOT_CENTER
 62
     2
100
AcDbLine
 10
234.6092528042421
 20
-117.5599502096961
 30
0.0
 11
241.623726021373
 21
-117.5599502096961
 31
0.0
  0
LINE
  5
6B
330
1F
100
AcDbEntity
  8
1
  6
DOT_CENTER
 62
     2
100
AcDbLine
 10
234.6092528042421
 20
-117.5599502096961
 30
0.0
 11
211.609252804242
 21
-117.5599502096961
 31
0.0
  0
LINE
  5
6C
330
1F
100
AcDbEntity
  8
1
  6
Continuous
 62
     7
100
AcDbLine
 10
178.609252804242
 20
-193.3452369788283
 30
0.0
 11
197.6092528042418
 21
-193.3452369788283
 31
0.0
  0
LINE
  5
6D
330
1F
100
AcDbEntity
  8
1
  6
Continuous
 62
     7
100
AcDbLine
 10
178.609252804242
 20
-193.3452369788283
 30
0.0
 11
178.609252804242
 21
-208.3452369788284
 31
0.0
  0
LINE
  5
6E
330
1F
100
AcDbEntity
  8
1
  6
Continuous
 62
     7
100
AcDbLine
 10
237.6092528042421
 20
-184.3452369788284
 30
0.0
 11
224.609252804242
 21
-184.3452369788284
 31
0.0
  0
LINE
  5
6F
330
1F
100
AcDbEntity
  8
1
  6
Continuous
 62
     7
100
AcDbLine
 10
237.6092528042421
 20
-168.3452369788284
 30
0.0
 11
237.6092528042421
 21
-184.3452369788284
 31
0.0
  0
LINE
  5
70
330
1F
100
AcDbEntity
  8
1
  6
Continuous
 62
     7
100
AcDbLine
 10
269.609252804242
 20
-208.3452369788284
 30
0.0
 11
224.6092528042418
 21
-208.3452369788284
 31
0.0
  0
LINE
  5
71
330
1F
100
AcDbEntity
  8
1
  6
Continuous
 62
     7
100
AcDbLine
 10
224.6092528042418
 20
-208.3452369788284
 30
0.0
 11
224.6092528042418
 21
-204.2452369788284
 31
0.0
  0
LINE
  5
72
330
1F
100
AcDbEntity
  8
1
  6
PHANTOM
 62
     2
100
AcDbLine
 10
269.609252804242
 20
-208.3452369788284
 30
0.0
 11
269.609252804242
 21
-168.3452369788284
 31
0.0
  0
LINE
  5
73
330
1F
100
AcDbEntity
  8
1
  6
PHANTOM
 62
     2
100
AcDbLine
 10
269.609252804242
 20
-210.1209675859319
 30
0.0
 11
269.609252804242
 21
-208.3452369788284
 31
0.0
  0
LINE
  5
74
330
1F
100
AcDbEntity
  8
1
  6
Continuous
 62
     7
100
AcDbLine
 10
237.6092528042421
 20
-168.3452369788284
 30
0.0
 11
269.609252804242
 21
-168.3452369788284
 31
0.0
  0
LINE
  5
75
330
1F
100
AcDbEntity
  8
1
  6
PHANTOM
 62
     2
100
AcDbLine
 10
269.609252804242
 20
-168.3452369788284
 30
0.0
 11
269.609252804242
 21
-163.5196902925655
 31
0.0
  0
LINE
  5
76
330
1F
100
AcDbEntity
  8
1
  6
Continuous
 62
     7
100
AcDbLine
 10
224.6092528042418
 20
-186.3952369788284
 30
0.0
 11
224.609252804242
 21
-184.3452369788284
 31
0.0
  0
LINE
  5
77
330
1F
100
AcDbEntity
  8
0
  6
Continuous
 62
     7
100
AcDbLine
 10
226.1092528042418
 20
-186.3952369788284
 30
0.0
 11
224.6092528042418
 21
-186.3952369788284
 31
0.0
  0
LINE
  5
78
330
1F
100
AcDbEntity
  8
0
  6
Continuous
 62
     7
100
AcDbLine
 10
224.6092528042418
 20
-186.5549016845284
 30
0.0
 11
224.6092528042418
 21
-186.3952369788284
 31
0.0
  0
LINE
  5
79
330
1F
100
AcDbEntity
  8
0
  6
Continuous
 62
     7
100
AcDbLine
 10
234.2092528042418
 20
-187.1452369788284
 30
0.0
 11
237.0092528042417
 21
-189.9452369788284
 31
0.0
  0
LINE
  5
7A
330
1F
100
AcDbEntity
  8
0
  6
Continuous
 62
     7
100
AcDbLine
 10
250.8092528042419
 20
-190.3452369788284
 30
0.0
 11
250.8092528042419
 21
-188.5626825111284
 31
0.0
  0
LINE
  5
7B
330
1F
100
AcDbEntity
  8
0
  6
Continuous
 62
     7
100
AcDbLine
 10
237.9092528042418
 20
-187.0452369788284
 30
0.0
 11
241.6092528042418
 21
-187.0452369788284
 31
0.0
  0
LINE
  5
7C
330
1F
100
AcDbEntity
  8
1
  6
DASHED
 62
     2
100
AcDbLine
 10
228.0462574455765
 20
-196.0614353178994
 30
0.0
 11
229.4649659548597
 21
-192.2610289753921
 31
0.0
  0
LINE
  5
7D
330
1F
100
AcDbEntity
  8
1
  6
DASHED
 62
     2
100
AcDbLine
 10
220.9402874753716
 20
-187.0716418394263
 30
0.0
 11
218.055578428479
 21
-189.9612940408878
 31
0.0
  0
LINE
  5
7E
330
1F
100
AcDbEntity
  8
1
  6
DASHED
 62
     2
100
AcDbLine
 10
216.7535396536239
 20
-192.2610289753921
 30
0.0
 11
218.1722481629071
 21
-196.0614353178994
 31
0.0
  0
LINE
  5
7F
330
1F
100
AcDbEntity
  8
0
  6
Continuous
 62
     7
100
AcDbLine
 10
224.6092528042418
 20
-204.2452369788284
 30
0.0
 11
224.6092528042418
 21
-193.2943477834284
 31
0.0
  0
LINE
  5
80
330
1F
100
AcDbEntity
  8
0
  6
Continuous
 62
     7
100
AcDbLine
 10
251.3092528042419
 20
-190.3452369788284
 30
0.0
 11
251.3092528042419
 21
-196.3452369788284
 31
0.0
  0
LINE
  5
81
330
1F
100
AcDbEntity
  8
0
  6
Continuous
 62
     7
100
AcDbLine
 10
250.8092528042419
 20
-200.1277914465284
 30
0.0
 11
250.8092528042419
 21
-196.3452369788284
 31
0.0
  0
LINE
  5
82
330
1F
100
AcDbEntity
  8
0
  6
Continuous
 62
     7
100
AcDbLine
 10
247.6092528042418
 20
-189.0452369788284
 30
0.0
 11
247.6092528042418
 21
-199.1452369788284
 31
0.0
  0
LINE
  5
83
330
1F
100
AcDbEntity
  8
0
  6
Continuous
 62
     7
100
AcDbLine
 10
246.0961847001418
 20
-194.9079201842284
 30
0.0
 11
244.6725657491418
 21
-191.0943598543284
 31
0.0
  0
LINE
  5
84
330
1F
100
AcDbEntity
  8
0
  6
Continuous
 62
     7
100
AcDbLine
 10
242.8630489473418
 20
-189.2773551831284
 30
0.0
 11
245.0667087961418
 21
-192.4245079672284
 31
0.0
  0
LINE
  5
85
330
1F
100
AcDbEntity
  8
DEFAULT_1
  6
DOT_CENTER
 62
     2
100
AcDbLine
 10
242.6092528042418
 20
-190.4327369788284
 30
0.0
 11
242.6092528042418
 21
-189.1202369788284
 31
0.0
  0
LINE
  5
86
330
1F
100
AcDbEntity
  8
DEFAULT_1
  6
DOT_CENTER
 62
     2
100
AcDbLine
 10
242.6092528042418
 20
-194.8877369788284
 30
0.0
 11
242.6092528042418
 21
-199.1702369788284
 31
0.0
  0
LINE
  5
87
330
1F
100
AcDbEntity
  8
0
  6
DOT_CENTER
 62
     2
100
AcDbLine
 10
242.6092528042418
 20
-190.4327369788284
 30
0.0
 11
242.6092528042418
 21
-194.8877369788284
 31
0.0
  0
LINE
  5
88
330
1F
100
AcDbEntity
  8
0
  6
Continuous
 62
     7
100
AcDbLine
 10
239.6548297000418
 20
-193.6242925696284
 30
0.0
 11
239.8896547395418
 21
-192.2925333455284
 31
0.0
  0
LINE
  5
89
330
1F
100
AcDbEntity
  8
0
  6
Continuous
 62
     7
100
AcDbLine
 10
237.9092528042418
 20
-187.0452369788284
 30
0.0
 11
237.9092528042418
 21
-186.3452369788284
 31
0.0
  0
LINE
  5
8A
330
1F
100
AcDbEntity
  8
0
  6
Continuous
 62
     7
100
AcDbLine
 10
237.9092528042418
 20
-201.7452369788284
 30
0.0
 11
237.9092528042418
 21
-202.3452369788284
 31
0.0
  0
LINE
  5
8B
330
1F
100
AcDbEntity
  8
0
  6
DASHED
 62
     2
100
AcDbLine
 10
209.2092528042418
 20
-189.9452369788284
 30
0.0
 11
212.0092528042418
 21
-187.1452369788284
 31
0.0
  0
LINE
  5
8C
330
1F
100
AcDbEntity
  8
0
  6
Continuous
 62
     7
100
AcDbLine
 10
234.6092528042418
 20
-204.3452369788284
 30
0.0
 11
234.6092528042418
 21
-201.7452369788284
 31
0.0
  0
LINE
  5
8D
330
1F
100
AcDbEntity
  8
0
  6
Continuous
 62
     3
100
AcDbLine
 10
239.2607663525419
 20
-186.3452369788284
 30
0.0
 11
240.9092528042418
 21
-186.9452369788284
 31
0.0
  0
LINE
  5
8E
330
1F
100
AcDbEntity
  8
0
  6
Continuous
 62
     7
100
AcDbLine
 10
241.6092528042418
 20
-187.0452369788284
 30
0.0
 11
247.6092528042418
 21
-189.0452369788284
 31
0.0
  0
LINE
  5
8F
330
1F
100
AcDbEntity
  8
0
  6
Continuous
 62
     7
100
AcDbLine
 10
231.6092528042418
 20
-201.8452369788284
 30
0.0
 11
231.6092528042418
 21
-204.2452369788284
 31
0.0
  0
LINE
  5
90
330
1F
100
AcDbEntity
  8
0
  6
Continuous
 62
     7
100
AcDbLine
 10
231.1092528042418
 20
-201.1452369788284
 30
0.0
 11
231.1092528042418
 21
-194.5675179788284
 31
0.0
  0
LINE
  5
91
330
1F
100
AcDbEntity
  8
0
  6
Continuous
 62
     7
100
AcDbLine
 10
247.6092528042418
 20
-199.1452369788284
 30
0.0
 11
240.6092528042418
 21
-201.6452369788284
 31
0.0
  0
LINE
  5
92
330
1F
100
AcDbEntity
  8
0
  6
Continuous
 62
     3
100
AcDbLine
 10
240.9092528042418
 20
-201.7452369788284
 30
0.0
 11
239.2607663525419
 21
-202.3452369788284
 31
0.0
  0
LINE
  5
93
330
1F
100
AcDbEntity
  8
0
  6
Continuous
 62
     7
100
AcDbLine
 10
229.9401005850418
 20
-191.7415127593284
 30
0.0
 11
225.2323882648418
 21
-187.0257334385284
 31
0.0
  0
LINE
  5
94
330
1F
100
AcDbEntity
  8
0
  6
Continuous
 62
     7
100
AcDbLine
 10
244.3092528042419
 20
-186.3452369788284
 30
0.0
 11
249.5180124556418
 21
-187.0772804079284
 31
0.0
  0
LINE
  5
95
330
1F
100
AcDbEntity
  8
0
  6
Continuous
 62
     3
100
AcDbLine
 10
244.3092528042419
 20
-186.9452369788284
 30
0.0
 11
249.5180124556418
 21
-187.6772804079284
 31
0.0
  0
LINE
  5
96
330
1F
100
AcDbEntity
  8
0
  6
Continuous
 62
     7
100
AcDbLine
 10
204.0742893982418
 20
-184.3452369788284
 30
0.0
 11
220.1092528042418
 21
-184.3452369788284
 31
0.0
  0
LINE
  5
97
330
1F
100
AcDbEntity
  8
0
  6
Continuous
 62
     7
100
AcDbLine
 10
220.1092528042418
 20
-184.3952369788284
 30
0.0
 11
221.6092528042418
 21
-184.3952369788284
 31
0.0
  0
LINE
  5
98
330
1F
100
AcDbEntity
  8
0
  6
Continuous
 62
     7
100
AcDbLine
 10
199.3309066023418
 20
-185.0118759562284
 30
0.0
 11
204.0742893982418
 21
-184.3452369788284
 31
0.0
  0
LINE
  5
99
330
1F
100
AcDbEntity
  8
0
  6
Continuous
 62
     3
100
AcDbLine
 10
204.1092528042418
 20
-184.8452369788284
 30
0.0
 11
199.4004931528418
 21
-185.5070099906284
 31
0.0
  0
LINE
  5
9A
330
1F
100
AcDbEntity
  8
0
  6
Continuous
 62
     7
100
AcDbLine
 10
227.0336188525419
 20
-196.3533378752284
 30
0.0
 11
225.3903297446418
 21
-199.8773821065284
 31
0.0
  0
LINE
  5
9B
330
1F
100
AcDbEntity
  8
DEFAULT_1
  6
DOT_CENTER
 62
     2
100
AcDbLine
 10
228.1092528042418
 20
-197.4327369788284
 30
0.0
 11
228.1092528042418
 21
-197.2952369788284
 31
0.0
  0
LINE
  5
9C
330
1F
100
AcDbEntity
  8
DEFAULT_1
  6
DOT_CENTER
 62
     2
100
AcDbLine
 10
228.1092528042418
 20
-204.8577369788284
 30
0.0
 11
228.1092528042418
 21
-204.9952369788284
 31
0.0
  0
LINE
  5
9D
330
1F
100
AcDbEntity
  8
0
  6
DOT_CENTER
 62
     2
100
AcDbLine
 10
228.1092528042418
 20
-197.4327369788284
 30
0.0
 11
228.1092528042418
 21
-204.8577369788284
 31
0.0
  0
LINE
  5
9E
330
1F
100
AcDbEntity
  8
0
  6
Continuous
 62
     7
100
AcDbLine
 10
226.1092528042418
 20
-187.0452369788284
 30
0.0
 11
226.1092528042418
 21
-186.3452369788284
 31
0.0
  0
LINE
  5
9F
330
1F
100
AcDbEntity
  8
0
  6
Continuous
 62
     7
100
AcDbLine
 10
226.1092528042418
 20
-204.3452369788284
 30
0.0
 11
226.1092528042418
 21
-204.2452369788284
 31
0.0
  0
LINE
  5
A0
330
1F
100
AcDbEntity
  8
0
  6
Continuous
 62
     3
100
AcDbLine
 10
219.1092528042418
 20
-184.8452369788284
 30
0.0
 11
204.1092528042418
 21
-184.8452369788284
 31
0.0
  0
LINE
  5
A1
330
1F
100
AcDbEntity
  8
0
  6
Continuous
 62
     7
100
AcDbLine
 10
226.1092528042418
 20
-186.3452369788284
 30
0.0
 11
244.3092528042419
 21
-186.3452369788284
 31
0.0
  0
LINE
  5
A2
330
1F
100
AcDbEntity
  8
0
  6
Continuous
 62
     7
100
AcDbLine
 10
203.6092528042418
 20
-186.4452369788284
 30
0.0
 11
220.1092528042418
 21
-186.4452369788284
 31
0.0
  0
LINE
  5
A3
330
1F
100
AcDbEntity
  8
0
  6
Continuous
 62
     3
100
AcDbLine
 10
240.9092528042418
 20
-186.9452369788284
 30
0.0
 11
244.3092528042419
 21
-186.9452369788284
 31
0.0
  0
LINE
  5
A4
330
1F
100
AcDbEntity
  8
0
  6
Continuous
 62
     7
100
AcDbLine
 10
225.5210370523419
 20
-187.0452369788284
 30
0.0
 11
237.9092528042418
 21
-187.0452369788284
 31
0.0
  0
LINE
  5
A5
330
1F
100
AcDbEntity
  8
0
  6
Continuous
 62
     7
100
AcDbLine
 10
226.1092528042418
 20
-187.1452369788284
 30
0.0
 11
238.7672888042418
 21
-187.1452369788284
 31
0.0
  0
LINE
  5
A6
330
1F
100
AcDbEntity
  8
0
  6
Continuous
 62
     7
100
AcDbLine
 10
220.1092528042418
 20
-187.1452369788284
 30
0.0
 11
207.4512168042418
 21
-187.1452369788284
 31
0.0
  0
LINE
  5
A7
330
1F
100
AcDbEntity
  8
0
  6
Continuous
 62
     9
420
 12434109
100
AcDbLine
 10
204.1077921073418
 20
-188.4452369788284
 30
0.0
 11
203.6092528042418
 21
-188.4452369788284
 31
0.0
  0
LINE
  5
A8
330
1F
100
AcDbEntity
  8
0
  6
Continuous
 62
     7
100
AcDbLine
 10
203.9380402366418
 20
-188.5952369788284
 30
0.0
 11
201.6092528042418
 21
-188.5952369788284
 31
0.0
  0
LINE
  5
A9
330
1F
100
AcDbEntity
  8
DEFAULT_1
  6
DOT_CENTER
 62
     2
100
AcDbLine
 10
226.8217528042418
 20
-189.1452369788284
 30
0.0
 11
227.8592528042418
 21
-189.1452369788284
 31
0.0
  0
LINE
  5
AA
330
1F
100
AcDbEntity
  8
DEFAULT_1
  6
DOT_CENTER
 62
     2
100
AcDbLine
 10
219.3967528042418
 20
-189.1452369788284
 30
0.0
 11
218.3592528042418
 21
-189.1452369788284
 31
0.0
  0
LINE
  5
AB
330
1F
100
AcDbEntity
  8
0
  6
DOT_CENTER
 62
     2
100
AcDbLine
 10
226.8217528042418
 20
-189.1452369788284
 30
0.0
 11
219.3967528042418
 21
-189.1452369788284
 31
0.0
  0
LINE
  5
AC
330
1F
100
AcDbEntity
  8
0
  6
Continuous
 62
     2
100
AcDbLine
 10
224.6516274085418
 20
-189.8521818191284
 30
0.0
 11
224.6270625662418
 21
-189.9048612935284
 31
0.0
  0
LINE
  5
AD
330
1F
100
AcDbEntity
  8
DEFAULT_1
  6
DOT_CENTER
 62
     2
100
AcDbLine
 10
223.1092528042418
 20
-189.8877369788284
 30
0.0
 11
223.1092528042418
 21
-193.8952369788284
 31
0.0
  0
LINE
  5
AE
330
1F
100
AcDbEntity
  8
0
  6
DOT_CENTER
 62
     2
100
AcDbLine
 10
223.1092528042418
 20
-185.4327369788284
 30
0.0
 11
223.1092528042418
 21
-189.8877369788284
 31
0.0
  0
LINE
  5
AF
330
1F
100
AcDbEntity
  8
0
  6
Continuous
 62
     7
100
AcDbLine
 10
221.6092528042418
 20
-205.2952369788284
 30
0.0
 11
221.6092528042418
 21
-193.2943477834284
 31
0.0
  0
LINE
  5
B0
330
1F
100
AcDbEntity
  8
0
  6
Continuous
 62
     7
100
AcDbLine
 10
224.1467900115418
 20
-193.1790428879284
 30
0.0
 11
225.7048463870418
 21
-193.5675098747284
 31
0.0
  0
LINE
  5
B1
330
1F
100
AcDbEntity
  8
0
  6
Continuous
 62
     7
100
AcDbLine
 10
208.2984668042418
 20
-189.9452369788284
 30
0.0
 11
217.8026528042418
 21
-189.9452369788284
 31
0.0
  0
LINE
  5
B2
330
1F
100
AcDbEntity
  8
0
  6
Continuous
 62
     7
100
AcDbLine
 10
237.9200388042418
 20
-189.9452369788284
 30
0.0
 11
228.4158528042418
 21
-189.9452369788284
 31
0.0
  0
LINE
  5
B3
330
1F
100
AcDbEntity
  8
0
  6
Continuous
 62
     7
100
AcDbLine
 10
250.8092528042419
 20
-190.3452369788284
 30
0.0
 11
251.3092528042419
 21
-190.3452369788284
 31
0.0
  0
LINE
  5
B4
330
1F
100
AcDbEntity
  8
0
  6
Continuous
 62
     7
100
AcDbLine
 10
220.1092528042418
 20
-187.1452369788284
 30
0.0
 11
220.1092528042418
 21
-184.3452369788284
 31
0.0
  0
LINE
  5
B5
330
1F
100
AcDbEntity
  8
0
  6
Continuous
 62
     7
100
AcDbLine
 10
220.1092528042418
 20
-205.3452369788284
 30
0.0
 11
220.1092528042418
 21
-204.3452369788284
 31
0.0
  0
LINE
  5
B6
330
1F
100
AcDbEntity
  8
0
  6
Continuous
 62
     3
100
AcDbLine
 10
219.1092528042418
 20
-184.3452369788284
 30
0.0
 11
219.1092528042418
 21
-184.8452369788284
 31
0.0
  0
LINE
  5
B7
330
1F
100
AcDbEntity
  8
0
  6
Continuous
 62
     7
100
AcDbLine
 10
219.1848867559418
 20
-196.3533378752284
 30
0.0
 11
220.8281758637418
 21
-199.8773821065284
 31
0.0
  0
LINE
  5
B8
330
1F
100
AcDbEntity
  8
DEFAULT_1
  6
DOT_CENTER
 62
     2
100
AcDbLine
 10
246.3217528042418
 20
-194.1452369788284
 30
0.0
 11
247.6342528042418
 21
-194.1452369788284
 31
0.0
  0
LINE
  5
B9
330
1F
100
AcDbEntity
  8
DEFAULT_1
  6
DOT_CENTER
 62
     2
100
AcDbLine
 10
204.3517528042418
 20
-194.1452369788284
 30
0.0
 11
208.6342528042418
 21
-194.1452369788284
 31
0.0
  0
LINE
  5
BA
330
1F
100
AcDbEntity
  8
DEFAULT_1
  6
DOT_CENTER
 62
     2
100
AcDbLine
 10
199.8967528042418
 20
-194.1452369788284
 30
0.0
 11
198.5842528042418
 21
-194.1452369788284
 31
0.0
  0
LINE
  5
BB
330
1F
100
AcDbEntity
  8
0
  6
DOT_CENTER
 62
     2
100
AcDbLine
 10
204.3517528042418
 20
-194.1452369788284
 30
0.0
 11
199.8967528042418
 21
-194.1452369788284
 31
0.0
  0
LINE
  5
BC
330
1F
100
AcDbEntity
  8
DEFAULT_1
  6
DOT_CENTER
 62
     2
100
AcDbLine
 10
238.8967528042418
 20
-194.1452369788284
 30
0.0
 11
237.5842528042418
 21
-194.1452369788284
 31
0.0
  0
LINE
  5
BD
330
1F
100
AcDbEntity
  8
0
  6
DOT_CENTER
 62
     2
100
AcDbLine
 10
246.3217528042418
 20
-194.1452369788284
 30
0.0
 11
238.8967528042418
 21
-194.1452369788284
 31
0.0
  0
LINE
  5
BE
330
1F
100
AcDbEntity
  8
DEFAULT_1
  6
DOT_CENTER
 62
     2
100
AcDbLine
 10
218.1092528042418
 20
-200.4027369788284
 30
0.0
 11
218.1092528042418
 21
-196.2952369788284
 31
0.0
  0
LINE
  5
BF
330
1F
100
AcDbEntity
  8
DEFAULT_1
  6
DOT_CENTER
 62
     2
100
AcDbLine
 10
218.1092528042418
 20
-204.8577369788284
 30
0.0
 11
218.1092528042418
 21
-205.9952369788284
 31
0.0
  0
LINE
  5
C0
330
1F
100
AcDbEntity
  8
0
  6
DOT_CENTER
 62
     2
100
AcDbLine
 10
218.1092528042418
 20
-200.4027369788284
 30
0.0
 11
218.1092528042418
 21
-204.8577369788284
 31
0.0
  0
LINE
  5
C1
330
1F
100
AcDbEntity
  8
0
  6
Continuous
 62
     7
100
AcDbLine
 10
250.8092528042419
 20
-196.3452369788284
 30
0.0
 11
251.3092528042419
 21
-196.3452369788284
 31
0.0
  0
LINE
  5
C2
330
1F
100
AcDbEntity
  8
0
  6
Continuous
 62
     7
100
AcDbLine
 10
222.0717155969418
 20
-193.1790428879284
 30
0.0
 11
220.5136592214418
 21
-193.5675098747284
 31
0.0
  0
LINE
  5
C3
330
1F
100
AcDbEntity
  8
0
  6
Continuous
 62
     7
100
AcDbLine
 10
216.2784050233418
 20
-191.7415127593284
 30
0.0
 11
218.0452239111418
 21
-189.9716663014284
 31
0.0
  0
LINE
  5
C4
330
1F
100
AcDbEntity
  8
0
  6
Continuous
 62
     7
100
AcDbLine
 10
215.1092528042418
 20
-194.5675179788284
 30
0.0
 11
215.1092528042418
 21
-201.1452369788284
 31
0.0
  0
LINE
  5
C5
330
1F
100
AcDbEntity
  8
0
  6
Continuous
 62
     7
100
AcDbLine
 10
213.6092528042418
 20
-200.3452369788284
 30
0.0
 11
213.6092528042418
 21
-204.3452369788284
 31
0.0
  0
LINE
  5
C6
330
1F
100
AcDbEntity
  8
0
  6
Continuous
 62
     7
100
AcDbLine
 10
211.6092528042418
 20
-205.3452369788284
 30
0.0
 11
211.6092528042418
 21
-199.8452369788284
 31
0.0
  0
LINE
  5
C7
330
1F
100
AcDbEntity
  8
0
  6
Continuous
 62
     3
100
AcDbLine
 10
211.4092528042418
 20
-201.8452369788284
 30
0.0
 11
211.4092528042418
 21
-202.3452369788284
 31
0.0
  0
LINE
  5
C8
330
1F
100
AcDbEntity
  8
0
  6
Continuous
 62
     7
100
AcDbLine
 10
204.1092528042418
 20
-199.8452369788284
 30
0.0
 11
213.1092528042418
 21
-199.8452369788284
 31
0.0
  0
LINE
  5
C9
330
1F
100
AcDbEntity
  8
0
  6
Continuous
 62
     7
100
AcDbLine
 10
213.5960875544419
 20
-200.2452369788284
 30
0.0
 11
203.6092528042418
 21
-200.2452369788284
 31
0.0
  0
LINE
  5
CA
330
1F
100
AcDbEntity
  8
DEFAULT_1
  6
DOT_CENTER
 62
     2
100
AcDbLine
 10
228.8517528042418
 20
-201.1452369788284
 30
0.0
 11
232.9592528042418
 21
-201.1452369788284
 31
0.0
  0
LINE
  5
CB
330
1F
100
AcDbEntity
  8
DEFAULT_1
  6
DOT_CENTER
 62
     2
100
AcDbLine
 10
221.8217528042418
 20
-201.1452369788284
 30
0.0
 11
222.9592528042418
 21
-201.1452369788284
 31
0.0
  0
LINE
  5
CC
330
1F
100
AcDbEntity
  8
DEFAULT_1
  6
DOT_CENTER
 62
     2
100
AcDbLine
 10
214.3967528042418
 20
-201.1452369788284
 30
0.0
 11
213.2592528042418
 21
-201.1452369788284
 31
0.0
  0
LINE
  5
CD
330
1F
100
AcDbEntity
  8
0
  6
DOT_CENTER
 62
     2
100
AcDbLine
 10
221.8217528042418
 20
-201.1452369788284
 30
0.0
 11
214.3967528042418
 21
-201.1452369788284
 31
0.0
  0
LINE
  5
CE
330
1F
100
AcDbEntity
  8
DEFAULT_1
  6
DOT_CENTER
 62
     2
100
AcDbLine
 10
224.3967528042418
 20
-201.1452369788284
 30
0.0
 11
223.2592528042418
 21
-201.1452369788284
 31
0.0
  0
LINE
  5
CF
330
1F
100
AcDbEntity
  8
0
  6
DOT_CENTER
 62
     2
100
AcDbLine
 10
228.8517528042418
 20
-201.1452369788284
 30
0.0
 11
224.3967528042418
 21
-201.1452369788284
 31
0.0
  0
LINE
  5
D0
330
1F
100
AcDbEntity
  8
0
  6
Continuous
 62
     7
100
AcDbLine
 10
240.6092528042418
 20
-201.6452369788284
 30
0.0
 11
231.8092528042419
 21
-201.6452369788284
 31
0.0
  0
LINE
  5
D1
330
1F
100
AcDbEntity
  8
0
  6
Continuous
 62
     7
100
AcDbLine
 10
237.9092528042418
 20
-201.7452369788284
 30
0.0
 11
234.6092528042418
 21
-201.7452369788284
 31
0.0
  0
LINE
  5
D2
330
1F
100
AcDbEntity
  8
0
  6
Continuous
 62
     3
100
AcDbLine
 10
244.3092528042419
 20
-201.7452369788284
 30
0.0
 11
240.9092528042418
 21
-201.7452369788284
 31
0.0
  0
LINE
  5
D3
330
1F
100
AcDbEntity
  8
0
  6
Continuous
 62
     3
100
AcDbLine
 10
204.1092528042418
 20
-201.8452369788284
 30
0.0
 11
211.4092528042418
 21
-201.8452369788284
 31
0.0
  0
LINE
  5
D4
330
1F
100
AcDbEntity
  8
0
  6
Continuous
 62
     2
100
AcDbLine
 10
227.8904791427418
 20
-199.4610483976284
 30
0.0
 11
227.9295299718418
 21
-199.4576318928284
 31
0.0
  0
LINE
  5
D5
330
1F
100
AcDbEntity
  8
0
  6
Continuous
 62
     7
100
AcDbLine
 10
206.5636759084418
 20
-193.6242925696284
 30
0.0
 11
206.3288508689418
 21
-192.2925333455284
 31
0.0
  0
LINE
  5
D6
330
1F
100
AcDbEntity
  8
0
  6
Continuous
 62
     7
100
AcDbLine
 10
198.6092528042418
 20
-198.3452369788284
 30
0.0
 11
204.1092528042418
 21
-199.8452369788284
 31
0.0
  0
LINE
  5
D7
330
1F
100
AcDbEntity
  8
0
  6
Continuous
 62
     3
100
AcDbLine
 10
199.4004931528418
 20
-201.1834639669284
 30
0.0
 11
204.1092528042418
 21
-201.8452369788284
 31
0.0
  0
LINE
  5
D8
330
1F
100
AcDbEntity
  8
0
  6
Continuous
 62
     7
100
AcDbLine
 10
204.0742893982418
 20
-202.3452369788284
 30
0.0
 11
199.3309066023418
 21
-201.6785980013284
 31
0.0
  0
LINE
  5
D9
330
1F
100
AcDbEntity
  8
0
  6
Continuous
 62
     7
100
AcDbLine
 10
204.0742893982418
 20
-202.3452369788284
 30
0.0
 11
211.6092528042418
 21
-202.3452369788284
 31
0.0
  0
LINE
  5
DA
330
1F
100
AcDbEntity
  8
0
  6
Continuous
 62
     7
100
AcDbLine
 10
244.3092528042419
 20
-202.3452369788284
 30
0.0
 11
234.6092528042418
 21
-202.3452369788284
 31
0.0
  0
LINE
  5
DB
330
1F
100
AcDbEntity
  8
0
  6
Continuous
 62
     7
100
AcDbLine
 10
231.6092528042418
 20
-204.2452369788284
 30
0.0
 11
224.6092528042418
 21
-204.2452369788284
 31
0.0
  0
LINE
  5
DC
330
1F
100
AcDbEntity
  8
0
  6
Continuous
 62
     7
100
AcDbLine
 10
226.1092528042418
 20
-204.3452369788284
 30
0.0
 11
234.6092528042418
 21
-204.3452369788284
 31
0.0
  0
LINE
  5
DD
330
1F
100
AcDbEntity
  8
0
  6
Continuous
 62
     7
100
AcDbLine
 10
213.6092528042418
 20
-204.3452369788284
 30
0.0
 11
221.6092528042418
 21
-204.3452369788284
 31
0.0
  0
LINE
  5
DE
330
1F
100
AcDbEntity
  8
0
  6
Continuous
 62
     7
100
AcDbLine
 10
220.1092528042418
 20
-205.2952369788284
 30
0.0
 11
221.6092528042418
 21
-205.2952369788284
 31
0.0
  0
LINE
  5
DF
330
1F
100
AcDbEntity
  8
0
  6
Continuous
 62
     7
100
AcDbLine
 10
211.6092528042418
 20
-205.3452369788284
 30
0.0
 11
220.1092528042418
 21
-205.3452369788284
 31
0.0
  0
LINE
  5
E0
330
1F
100
AcDbEntity
  8
0
  6
Continuous
 62
     3
100
AcDbLine
 10
249.5180124556418
 20
-201.0131935496284
 30
0.0
 11
244.3092528042419
 21
-201.7452369788284
 31
0.0
  0
LINE
  5
E1
330
1F
100
AcDbEntity
  8
0
  6
Continuous
 62
     7
100
AcDbLine
 10
249.5180124556418
 20
-201.6131935496284
 30
0.0
 11
244.3092528042419
 21
-202.3452369788284
 31
0.0
  0
LINE
  5
E2
330
1F
100
AcDbEntity
  8
0
  6
Continuous
 62
     7
100
AcDbLine
 10
201.6092528042418
 20
-188.5952369788284
 30
0.0
 11
198.6092528042418
 21
-189.5952369788284
 31
0.0
  0
LINE
  5
E3
330
1F
100
AcDbEntity
  8
0
  6
Continuous
 62
     7
100
AcDbLine
 10
203.3554566611418
 20
-189.2773551831284
 30
0.0
 11
201.1517968123418
 21
-192.4245079672284
 31
0.0
  0
LINE
  5
E4
330
1F
100
AcDbEntity
  8
DEFAULT_1
  6
DOT_CENTER
 62
     2
100
AcDbLine
 10
203.6092528042418
 20
-190.4327369788284
 30
0.0
 11
203.6092528042418
 21
-189.1202369788284
 31
0.0
  0
LINE
  5
E5
330
1F
100
AcDbEntity
  8
0
  6
Continuous
 62
     7
100
AcDbLine
 10
203.6092528042418
 20
-199.7088733424284
 30
0.0
 11
203.6092528042418
 21
-200.2452369788284
 31
0.0
  0
LINE
  5
E6
330
1F
100
AcDbEntity
  8
DEFAULT_1
  6
DOT_CENTER
 62
     2
100
AcDbLine
 10
203.6092528042418
 20
-197.8577369788284
 30
0.0
 11
203.6092528042418
 21
-199.1702369788284
 31
0.0
  0
LINE
  5
E7
330
1F
100
AcDbEntity
  8
0
  6
DOT_CENTER
 62
     2
100
AcDbLine
 10
203.6092528042418
 20
-190.4327369788284
 30
0.0
 11
203.6092528042418
 21
-197.8577369788284
 31
0.0
  0
LINE
  5
E8
330
1F
100
AcDbEntity
  8
0
  6
Continuous
 62
     7
100
AcDbLine
 10
203.6092528042418
 20
-186.4452369788284
 30
0.0
 11
203.6092528042418
 21
-188.5952369788284
 31
0.0
  0
LINE
  5
E9
330
1F
100
AcDbEntity
  8
0
  6
Continuous
 62
     7
100
AcDbLine
 10
201.5459398593418
 20
-191.0943598543284
 30
0.0
 11
200.1223209083418
 21
-194.9079201842284
 31
0.0
  0
LINE
  5
EA
330
1F
100
AcDbEntity
  8
0
  6
Continuous
 62
     7
100
AcDbLine
 10
198.6092528042418
 20
-189.5952369788284
 30
0.0
 11
198.6092528042418
 21
-198.3452369788284
 31
0.0
  0
LINE
  5
EB
330
1F
100
AcDbEntity
  8
0
  6
Continuous
 62
     3
100
AcDbLine
 10
198.1092528042418
 20
-186.9924120937284
 30
0.0
 11
198.1092528042418
 21
-199.6980618638284
 31
0.0
  0
LINE
  5
EC
330
1F
100
AcDbEntity
  8
0
  6
Continuous
 62
     7
100
AcDbLine
 10
197.6092528042418
 20
-199.6980618638284
 30
0.0
 11
197.6092528042418
 21
-186.9924120937284
 31
0.0
  0
ARC
  5
ED
330
1F
100
AcDbEntity
  8
1
  6
DASHED
 62
     2
100
AcDbCircle
 10
243.7357153612935
 20
-191.444090252019
 30
0.0
 40
1.00000000100234
100
AcDbArc
 50
92.93306125759702
 51
116.8591055334343
  0
ARC
  5
EE
330
1F
100
AcDbEntity
  8
1
  6
DASHED
 62
     2
100
AcDbCircle
 10
235.6146448716003
 20
-175.4082292176149
 30
0.0
 40
16.97499999936726
100
AcDbArc
 50
-75.32764301184214
 51
-63.14089444732391
  0
ARC
  5
EF
330
1F
100
AcDbEntity
  8
0
  6
DASHED
 62
     2
100
AcDbCircle
 10
228.1092528042418
 20
-201.1452369788284
 30
0.0
 40
3.0
100
AcDbArc
 50
0.0
 51
167.906857593795
  0
ARC
  5
F0
330
1F
100
AcDbEntity
  8
0
  6
Continuous
 62
     7
100
AcDbCircle
 10
228.1092528042418
 20
-201.1452369788284
 30
0.0
 40
2.999999999999901
100
AcDbArc
 50
167.906857593795
 51
180.0
  0
ARC
  5
F1
330
1F
100
AcDbEntity
  8
0
  6
Continuous
 62
     7
100
AcDbCircle
 10
228.1092528042418
 20
-201.1452369788284
 30
0.0
 40
3.0
100
AcDbArc
 50
180.0
 51
0.0
  0
ARC
  5
F2
330
1F
100
AcDbEntity
  8
1
  6
DASHED
 62
     2
100
AcDbCircle
 10
230.2744728700682
 20
-192.5243417711738
 30
0.0
 40
0.8512549995111601
100
AcDbArc
 50
113.1291227319061
 51
161.9815607014132
  0
ARC
  5
F3
330
1F
100
AcDbEntity
  8
1
  6
DASHED
 62
     2
100
AcDbCircle
 10
235.6146448713319
 20
-175.4082292170576
 30
0.0
 40
23.02499999996927
100
AcDbArc
 50
-107.5231640688548
 51
-101.2941943747895
  0
ARC
  5
F4
330
1F
100
AcDbEntity
  8
0
  6
DASHED
 62
     2
100
AcDbCircle
 10
228.4158528042418
 20
-191.9452369788284
 30
0.0
 40
2.000000238100026
100
AcDbArc
 50
97.26523831374453
 51
152.1818622102274
  0
ARC
  5
F5
330
1F
100
AcDbEntity
  8
0
  6
DASHED
 62
     2
100
AcDbCircle
 10
223.1092528042418
 20
-189.1452369788284
 30
0.0
 40
4.000000058487776
100
AcDbArc
 50
-95.29491716816774
 51
-27.81813778990135
  0
ARC
  5
F6
330
1F
100
AcDbEntity
  8
1
  6
DASHED
 62
     2
100
AcDbCircle
 10
223.1762512771135
 20
-189.2274174423451
 30
0.0
 40
3.105946324848512
100
AcDbArc
 50
126.9490450634357
 51
136.046039954341
  0
ARC
  5
F7
330
1F
100
AcDbEntity
  8
0
  6
Continuous
 62
     7
100
AcDbCircle
 10
217.8026528042418
 20
-191.9452369788284
 30
0.0
 40
2.000000238166696
100
AcDbArc
 50
27.8181377897726
 51
82.73476168625305
  0
ARC
  5
F8
330
1F
100
AcDbEntity
  8
1
  6
DASHED
 62
     2
100
AcDbCircle
 10
210.6038607371517
 20
-175.4082292170576
 30
0.0
 40
23.02499999996931
100
AcDbArc
 50
-78.70580562521053
 51
-72.47683593114546
  0
ARC
  5
F9
330
1F
100
AcDbEntity
  8
1
  6
DASHED
 62
     2
100
AcDbCircle
 10
215.9440327384154
 20
-192.5243417711738
 30
0.0
 40
0.8512549995111824
100
AcDbArc
 50
18.01843929858622
 51
66.87087726809219
  0
ARC
  5
FA
330
1F
100
AcDbEntity
  8
1
  6
DASHED
 62
     2
100
AcDbCircle
 10
210.6038607368834
 20
-175.4082292176149
 30
0.0
 40
16.97499999936733
100
AcDbArc
 50
-116.8591055526763
 51
-104.6723569881581
  0
ARC
  5
FB
330
1F
100
AcDbEntity
  8
1
  6
DASHED
 62
     2
100
AcDbCircle
 10
202.48279024719
 20
-191.444090252019
 30
0.0
 40
1.000000001002337
100
AcDbArc
 50
63.14089446655991
 51
87.06693874239649
  0
ARC
  5
FC
330
1F
100
AcDbEntity
  8
0
  6
Continuous
 62
     7
100
AcDbCircle
 10
203.6092528042418
 20
-194.1452369788284
 30
0.0
 40
2.999999713914515
100
AcDbArc
 50
145.0000031093283
 51
9.99999818489213
  0
ARC
  5
FD
330
1F
100
AcDbEntity
  8
0
  6
Continuous
 62
     7
100
AcDbCircle
 10
208.2984668042418
 20
-191.9452369788284
 30
0.0
 40
2.0
100
AcDbArc
 50
90.0
 51
-170.000001815116
  0
ARC
  5
FE
330
1F
100
AcDbEntity
  8
0
  6
Continuous
 62
     7
100
AcDbCircle
 10
207.4512168042418
 20
-192.1452369788284
 30
0.0
 40
5.0
100
AcDbArc
 50
90.0
 51
145.0000031090006
  0
ARC
  5
FF
330
1F
100
AcDbEntity
  8
0
  6
Continuous
 62
     7
100
AcDbCircle
 10
217.8026528042418
 20
-191.9452369788284
 30
0.0
 40
2.000000238100037
100
AcDbArc
 50
82.73476168625305
 51
90.0
  0
ARC
  5
100
330
1F
100
AcDbEntity
  8
0
  6
Continuous
 62
     7
100
AcDbCircle
 10
223.1092528042418
 20
-189.1452369788284
 30
0.0
 40
4.000000058499972
100
AcDbArc
 50
-152.1818622100986
 51
-84.70508283183065
  0
ARC
  5
101
330
1F
100
AcDbEntity
  8
0
  6
Continuous
 62
     7
100
AcDbCircle
 10
225.2210028042418
 20
-195.5081009788284
 30
0.0
 40
2.000000587397656
100
AcDbArc
 50
-25.00000394086336
 51
76.0000033786014
  0
ARC
  5
102
330
1F
100
AcDbEntity
  8
0
  6
Continuous
 62
     7
100
AcDbCircle
 10
220.1092528042418
 20
-185.1452369788284
 30
0.0
 40
2.0
100
AcDbArc
 50
-90.0
 51
-53.13010235419653
  0
ARC
  5
103
330
1F
100
AcDbEntity
  8
0
  6
Continuous
 62
     7
100
AcDbCircle
 10
223.1092528042418
 20
-189.1452369788284
 30
0.0
 40
2.999999906900233
100
AcDbArc
 50
44.95095183591125
 51
126.8698976458019
  0
ARC
  5
104
330
1F
100
AcDbEntity
  8
0
  6
Continuous
 62
     7
100
AcDbCircle
 10
227.1092528042418
 20
-194.5675179788284
 30
0.0
 40
4.0
100
AcDbArc
 50
0.0
 51
44.95095183510362
  0
ARC
  5
105
330
1F
100
AcDbEntity
  8
0
  6
Continuous
 62
     7
100
AcDbCircle
 10
223.6629463348418
 20
-195.1196343690284
 30
0.0
 40
2.000000000000121
100
AcDbArc
 50
76.00000338058236
 51
95.29491716761237
  0
ARC
  5
106
330
1F
100
AcDbEntity
  8
0
  6
Continuous
 62
     7
100
AcDbCircle
 10
242.6092528042418
 20
-194.1452369788284
 30
0.0
 40
2.999999713899562
100
AcDbArc
 50
170.000001815108
 51
34.999996890672
  0
ARC
  5
107
330
1F
100
AcDbEntity
  8
0
  6
Continuous
 62
     7
100
AcDbCircle
 10
237.9200388042418
 20
-191.9452369788284
 30
0.0
 40
2.000000000000322
100
AcDbArc
 50
-9.99999818488399
 51
90.0
  0
ARC
  5
108
330
1F
100
AcDbEntity
  8
0
  6
Continuous
 62
     7
100
AcDbCircle
 10
238.7672888042418
 20
-192.1452369788284
 30
0.0
 40
5.000000000000291
100
AcDbArc
 50
34.99999689099871
 51
90.0
  0
ARC
  5
109
330
1F
100
AcDbEntity
  8
0
  6
Continuous
 62
     7
100
AcDbCircle
 10
222.5555592736419
 20
-195.1196343690284
 30
0.0
 40
2.000000000000298
100
AcDbArc
 50
84.70508283238682
 51
103.99999661942
  0
ARC
  5
10A
330
1F
100
AcDbEntity
  8
0
  6
Continuous
 62
     7
100
AcDbCircle
 10
219.1092528042418
 20
-194.5675179788284
 30
0.0
 40
4.000000000000139
100
AcDbArc
 50
135.0489633727968
 51
180.0
  0
ARC
  5
10B
330
1F
100
AcDbEntity
  8
0
  6
Continuous
 62
     7
100
AcDbCircle
 10
226.1092528042418
 20
-185.1452369788284
 30
0.0
 40
2.000000000000096
100
AcDbArc
 50
-126.8704122987147
 51
-90.0
  0
ARC
  5
10C
330
1F
100
AcDbEntity
  8
0
  6
Continuous
 62
     7
100
AcDbCircle
 10
228.4158528042418
 20
-191.9452369788284
 30
0.0
 40
2.0000002381002
100
AcDbArc
 50
90.00006261559963
 51
97.03835364539935
  0
ARC
  5
10D
330
1F
100
AcDbEntity
  8
0
  6
Continuous
 62
     7
100
AcDbCircle
 10
220.9975028042418
 20
-195.5081009788284
 30
0.0
 40
2.000000587400086
100
AcDbArc
 50
104.0002493777111
 51
-154.9999960591356
  0
ARC
  5
10E
330
1F
100
AcDbEntity
  8
0
  6
Continuous
 62
     7
100
AcDbCircle
 10
199.6092528042418
 20
-199.6980618638284
 30
0.0
 40
2.0
100
AcDbArc
 50
180.0
 51
-97.9999999993619
  0
ARC
  5
10F
330
1F
100
AcDbEntity
  8
0
  6
Continuous
 62
     7
100
AcDbCircle
 10
199.6092528042418
 20
-186.9924120937284
 30
0.0
 40
2.000000000013891
100
AcDbArc
 50
97.9999999993619
 51
180.0
  0
ARC
  5
110
330
1F
100
AcDbEntity
  8
0
  6
Continuous
 62
     3
100
AcDbCircle
 10
199.6092528042418
 20
-186.9924120937284
 30
0.0
 40
1.499999999982186
100
AcDbArc
 50
97.99999999854954
 51
180.0
  0
ARC
  5
111
330
1F
100
AcDbEntity
  8
0
  6
Continuous
 62
     3
100
AcDbCircle
 10
199.6092528042418
 20
-199.6980618638284
 30
0.0
 40
1.5
100
AcDbArc
 50
180.0
 51
-97.99999999854954
  0
ARC
  5
112
330
1F
100
AcDbEntity
  8
0
  6
Continuous
 62
     7
100
AcDbCircle
 10
249.3092528042419
 20
-200.1277914465284
 30
0.0
 40
1.499999999982171
100
AcDbArc
 50
-82.00000000145478
 51
0.0
  0
ARC
  5
113
330
1F
100
AcDbEntity
  8
0
  6
Continuous
 62
     7
100
AcDbCircle
 10
249.3092528042419
 20
-188.5626825111284
 30
0.0
 40
1.5
100
AcDbArc
 50
0.0
 51
82.00000000198631
  0
ARC
  5
114
330
1F
100
AcDbEntity
  8
0
  6
Continuous
 62
     3
100
AcDbCircle
 10
249.3092528042419
 20
-199.5277914465284
 30
0.0
 40
1.499999999982171
100
AcDbArc
 50
-82.00000000145478
 51
0.0
  0
ARC
  5
115
330
1F
100
AcDbEntity
  8
0
  6
Continuous
 62
     3
100
AcDbCircle
 10
249.3092528042419
 20
-189.1626825111284
 30
0.0
 40
1.5
100
AcDbArc
 50
0.0
 51
82.00000000198631
  0
ARC
  5
116
330
1F
100
AcDbEntity
  8
0
  6
Continuous
 62
     7
100
AcDbCircle
 10
230.4018163429419
 20
-192.6107593720284
 30
0.0
 40
1.000000000004716
100
AcDbArc
 50
73.14178242945857
 51
118.0103408044874
  0
ARC
  5
117
330
1F
100
AcDbEntity
  8
0
  6
Continuous
 62
     7
100
AcDbCircle
 10
235.6146448713419
 20
-175.4082292170284
 30
0.0
 40
16.97500000000044
100
AcDbArc
 50
-106.8582175739008
 51
-75.32764301149987
  0
ARC
  5
118
330
1F
100
AcDbEntity
  8
0
  6
Continuous
 62
     7
100
AcDbCircle
 10
243.7357153610418
 20
-191.4440902510284
 30
0.0
 40
1.000000000029532
100
AcDbArc
 50
20.47082586302199
 51
92.93306124609866
  0
ARC
  5
119
330
1F
100
AcDbEntity
  8
0
  6
Continuous
 62
     7
100
AcDbCircle
 10
245.1593343120418
 20
-195.2576505808284
 30
0.0
 40
1.000000000066202
100
AcDbArc
 50
-64.31920239197908
 51
20.47082585765338
  0
ARC
  5
11A
330
1F
100
AcDbEntity
  8
0
  6
Continuous
 62
     7
100
AcDbCircle
 10
235.6146448713419
 20
-175.4082292170284
 30
0.0
 40
23.02499999999989
100
AcDbArc
 50
-101.2941943747997
 51
-64.31920239159912
  0
ARC
  5
11B
330
1F
100
AcDbEntity
  8
0
  6
Continuous
 62
     7
100
AcDbCircle
 10
231.8092528042419
 20
-201.8452369788284
 30
0.0
 40
0.2000000000000171
100
AcDbArc
 50
90.0
 51
180.0
  0
ARC
  5
11C
330
1F
100
AcDbEntity
  8
0
  6
Continuous
 62
     7
100
AcDbCircle
 10
201.0591712963418
 20
-195.2576505808284
 30
0.0
 40
0.9999999999008533
100
AcDbArc
 50
159.5291741403425
 51
-115.6807976028565
  0
ARC
  5
11D
330
1F
100
AcDbEntity
  8
0
  6
Continuous
 62
     7
100
AcDbCircle
 10
202.4827902474418
 20
-191.4440902510284
 30
0.0
 40
1.000000000000148
100
AcDbArc
 50
87.06693875390135
 51
159.5291741369786
  0
ARC
  5
11E
330
1F
100
AcDbEntity
  8
0
  6
Continuous
 62
     7
100
AcDbCircle
 10
210.6038607371418
 20
-175.4082292170284
 30
0.0
 40
16.97500000000009
100
AcDbArc
 50
-104.6723569885004
 51
-73.14178242629765
  0
ARC
  5
11F
330
1F
100
AcDbEntity
  8
0
  6
Continuous
 62
     7
100
AcDbCircle
 10
215.8166892655418
 20
-192.6107593720284
 30
0.0
 40
0.9999999999995416
100
AcDbArc
 50
61.98969175201402
 51
106.8582175739123
  0
ARC
  5
120
330
1F
100
AcDbEntity
  8
0
  6
Continuous
 62
     7
100
AcDbCircle
 10
210.6038607371418
 20
-175.4082292170284
 30
0.0
 40
23.02500000000012
100
AcDbArc
 50
-115.6807976084011
 51
-78.70580562520054
  0
ARC
  5
121
330
1F
100
AcDbEntity
  8
0
  6
Continuous
 62
     7
100
AcDbCircle
 10
213.1092528042418
 20
-200.3452369788284
 30
0.0
 40
0.5
100
AcDbArc
 50
0.0
 51
90.0
  0
CIRCLE
  5
122
330
1F
100
AcDbEntity
  8
0
  6
Continuous
 62
     7
100
AcDbCircle
 10
218.1092528042418
 20
-201.1452369788284
 30
0.0
 40
1.700000000000102
  0
CIRCLE
  5
123
330
1F
100
AcDbEntity
  8
0
  6
Continuous
 62
     7
100
AcDbCircle
 10
218.1092528042418
 20
-201.1452369788284
 30
0.0
 40
3.0
  0
CIRCLE
  5
124
330
1F
100
AcDbEntity
  8
0
  6
Continuous
 62
     7
100
AcDbCircle
 10
203.6092528042418
 20
-194.1452369788284
 30
0.0
 40
1.950000000000102
  0
CIRCLE
  5
125
330
1F
100
AcDbEntity
  8
0
  6
Continuous
 62
     7
100
AcDbCircle
 10
242.6092528042418
 20
-194.1452369788284
 30
0.0
 40
1.950000000000102
  0
CIRCLE
  5
126
330
1F
100
AcDbEntity
  8
0
  6
Continuous
 62
     7
100
AcDbCircle
 10
223.1092528042418
 20
-189.1452369788284
 30
0.0
 40
1.700000000000102
  0
CIRCLE
  5
127
330
1F
100
AcDbEntity
  8
0
  6
Continuous
 62
     7
100
AcDbCircle
 10
228.1092528042418
 20
-201.1452369788284
 30
0.0
 40
1.700000000000102
  0
XLINE
  5
128
330
1F
100
AcDbEntity
  8
1
  6
DOT_CENTER
 62
     3
 60
     1
100
AcDbXline
 10
210.6038607371418
 20
-175.4082292170284
 30
0.0
 11
0.0
 21
1.0
 31
0.0
  0
XLINE
  5
129
330
1F
100
AcDbEntity
  8
1
  6
DOT_CENTER
 62
     3
 60
     1
100
AcDbXline
 10
223.1092528042418
 20
-189.8877369788284
 30
0.0
 11
0.0
 21
1.0
 31
0.0
  0
XLINE
  5
12A
330
1F
100
AcDbEntity
  8
1
  6
DOT_CENTER
 62
     3
 60
     1
100
AcDbXline
 10
223.1092528042418
 20
-189.8877369788284
 30
0.0
 11
0.0
 21
1.0
 31
0.0
  0
XLINE
  5
12B
330
1F
100
AcDbEntity
  8
1
  6
DOT_CENTER
 62
     3
 60
     1
100
AcDbXline
 10
223.1092528042418
 20
-189.8877369788284
 30
0.0
 11
0.0
 21
1.0
 31
0.0
  0
XLINE
  5
12C
330
1F
100
AcDbEntity
  8
1
  6
DOT_CENTER
 62
     3
 60
     1
100
AcDbXline
 10
223.1092528042418
 20
-189.8877369788284
 30
0.0
 11
0.0
 21
1.0
 31
0.0
  0
ARC
  5
12D
330
1F
100
AcDbEntity
  8
1
  6
DASHED
 62
     2
100
AcDbCircle
 10
228.9831078336716
 20
-196.4111657145282
 30
0.0
 40
1.000000000000053
100
AcDbArc
 50
159.5291741407017
 51
-107.5231640688587
  0
ARC
  5
12E
330
1F
100
AcDbEntity
  8
1
  6
DASHED
 62
     2
100
AcDbCircle
 10
217.235397774812
 20
-196.4111657145282
 30
0.0
 40
1.000000000000043
100
AcDbArc
 50
-72.47683593114596
 51
20.4708258592983
  0
DIMENSION
  5
13A
330
1F
100
AcDbEntity
  8
1
100
AcDbDimension
  2
*D1
 10
157.971345540467
 20
-184.3452369788284
 30
0.0
 11
154.221345540467
 21
-196.026222501125
 31
0.0
 70
    32
  1
<>
 71
     5
 42
-1.0
 53
90.0
  3
ME10_DIM_10
100
AcDbAlignedDimension
 13
211.6092528042418
 23
-205.3452369788284
 33
0.0
 14
220.1092528042418
 24
-184.3452369788284
 34
0.0
 50
90.0
100
AcDbRotatedDimension
  0
DIMENSION
  5
145
330
1F
100
AcDbEntity
  8
1
100
AcDbDimension
  2
*D2
 10
224.6092528042418
 20
-228.540427362849
 30
0.0
 11
237.491473231546
 21
-224.790427362849
 31
0.0
 70
    32
  1
27
 71
     5
 42
-1.0
 53
0.00013888888889
  3
ME10_DIM_11
100
AcDbAlignedDimension
 13
251.3092528042419
 23
-196.3452369788284
 33
0.0
 14
224.6092528042418
 24
-208.3452369788284
 34
0.0
100
AcDbRotatedDimension
  0
DIMENSION
  5
150
330
1F
100
AcDbEntity
  8
1
100
AcDbDimension
  2
*D3
 10
197.6092528042418
 20
-228.603158173665
 30
0.0
 11
210.404202264738
 21
-224.853158173665
 31
0.0
 70
    32
  1
<>
 71
     5
 42
-1.0
 53
0.00013888888889
  3
ME10_DIM_12
100
AcDbAlignedDimension
 13
221.6092528042421
 23
-208.3452369788283
 33
0.0
 14
197.6092528042418
 24
-199.6980618638284
 34
0.0
100
AcDbRotatedDimension
  0
DIMENSION
  5
15B
330
1F
100
AcDbEntity
  8
1
100
AcDbDimension
  2
*D4
 10
168.466943950804
 20
-184.3452369788284
 30
0.0
 11
164.716943950804
 21
-194.833853172573
 31
0.0
 70
    32
  1
<>
 71
     5
 42
-1.0
 53
90.0
  3
ME10_DIM_13
100
AcDbAlignedDimension
 13
204.0742893982418
 23
-202.3452369788284
 33
0.0
 14
204.0742893982418
 24
-184.3452369788284
 34
0.0
 50
90.0
100
AcDbRotatedDimension
  0
DIMENSION
  5
166
330
1F
100
AcDbEntity
  8
1
100
AcDbDimension
  2
*D5
 10
278.959139545955
 20
-186.3452369788284
 30
0.0
 11
275.209139545955
 21
-193.236106940393
 31
0.0
 70
    32
  1
<>
 71
     5
 42
-1.0
 53
90.0
  3
ME10_DIM_14
100
AcDbAlignedDimension
 13
244.3092528042419
 23
-202.3452369788284
 33
0.0
 14
244.3092528042419
 24
-186.3452369788284
 34
0.0
 50
90.0
100
AcDbRotatedDimension
  0
DIMENSION
  5
171
330
1F
100
AcDbEntity
  8
1
100
AcDbDimension
  2
*D6
 10
289.613060893123
 20
-186.3452369788284
 30
0.0
 11
285.863060893123
 21
-194.806644766722
 31
0.0
 70
    32
  1
<>
 71
     5
 42
-1.0
 53
90.0
  3
ME10_DIM_15
100
AcDbAlignedDimension
 13
234.6092528042418
 23
-204.3452369788284
 33
0.0
 14
244.3092528042419
 24
-186.3452369788284
 34
0.0
 50
90.0
100
AcDbRotatedDimension
  0
DIMENSION
  5
17E
330
1F
100
AcDbEntity
  8
1
100
AcDbDimension
  2
*D7
 10
289.613060893123
 20
-204.3452369788284
 30
0.0
 11
285.863060893123
 21
-212.49357660346
 31
0.0
 70
    32
  1
<>
 71
     5
 42
-1.0
 53
90.0
  3
ME10_DIM_16
100
AcDbAlignedDimension
 13
269.609252804242
 23
-208.3452369788284
 33
0.0
 14
234.6092528042418
 24
-204.3452369788284
 34
0.0
 50
90.0
100
AcDbRotatedDimension
  0
DIMENSION
  5
18B
330
1F
100
AcDbEntity
  8
1
100
AcDbDimension
  2
*D8
 10
221.6092528042421
 20
-218.5784634498689
 30
0.0
 11
217.2480544254361
 21
-214.8284634498689
 31
0.0
 70
    32
  1
<>
 71
     5
 42
-1.0
 53
0.00013888888889
  3
ME10_DIM_17
100
AcDbAlignedDimension
 13
224.6092528042418
 23
-208.3452369788284
 33
0.0
 14
221.6092528042421
 24
-208.3452369788283
 34
0.0
100
AcDbRotatedDimension
  0
ENDSEC
  0
SECTION
  2
OBJECTS
  0
DICTIONARY
  5
C
330
0
100
AcDbDictionary
281
     1
  3
ACAD_GROUP
350
D
  3
ACAD_LAYOUT
350
1A
  3
ACAD_MLINESTYLE
350
17
  3
ACAD_PLOTSETTINGS
350
19
  3
ACAD_PLOTSTYLENAME
350
E
  0
DICTIONARY
  5
D
102
{ACAD_REACTORS
330
C
102
}
330
C
100
AcDbDictionary
281
     1
  0
DICTIONARY
  5
1A
102
{ACAD_REACTORS
330
C
102
}
330
C
100
AcDbDictionary
281
     1
  3
Layout1
350
1E
  3
Layout2
350
26
  3
Model
350
22
  0
DICTIONARY
  5
17
102
{ACAD_REACTORS
330
C
102
}
330
C
100
AcDbDictionary
281
     1
  3
Standard
350
18
  0
DICTIONARY
  5
19
102
{ACAD_REACTORS
330
C
102
}
330
C
100
AcDbDictionary
281
     1
  0
ACDBDICTIONARYWDFLT
  5
E
102
{ACAD_REACTORS
330
C
102
}
330
C
100
AcDbDictionary
281
     1
  3
Normal
350
F
100
AcDbDictionaryWithDefault
340
F
  0
LAYOUT
  5
1E
102
{ACAD_REACTORS
330
1A
102
}
330
1A
100
AcDbPlotSettings
  1

  2

  4

  6

 40
0.0
 41
0.0
 42
0.0
 43
0.0
 44
0.0
 45
0.0
 46
0.0
 47
0.0
 48
0.0
 49
0.0
140
0.0
141
0.0
142
1.0
143
1.0
 70
   688
 72
     0
 73
     0
 74
     5
  7

 75
    16
 76
     0
 77
     2
 78
   300
147
1.0
148
0.0
149
0.0
100
AcDbLayout
  1
Layout1
 70
     1
 71
     1
 10
0.0
 20
0.0
 11
0.0
 21
0.0
 12
0.0
 22
0.0
 32
0.0
 14
0.0
 24
0.0
 34
0.0
 15
0.0
 25
0.0
 35
0.0
146
0.0
 13
0.0
 23
0.0
 33
0.0
 16
1.0
 26
0.0
 36
0.0
 17
0.0
 27
1.0
 37
0.0
 76
     0
330
1B
  0
LAYOUT
  5
26
102
{ACAD_REACTORS
330
1A
102
}
330
1A
100
AcDbPlotSettings
  1

  2

  4

  6

 40
0.0
 41
0.0
 42
0.0
 43
0.0
 44
0.0
 45
0.0
 46
0.0
 47
0.0
 48
0.0
 49
0.0
140
0.0
141
0.0
142
1.0
143
1.0
 70
   688
 72
     0
 73
     0
 74
     5
  7

 75
    16
 76
     0
 77
     2
 78
   300
147
1.0
148
0.0
149
0.0
100
AcDbLayout
  1
Layout2
 70
     1
 71
     2
 10
0.0
 20
0.0
 11
0.0
 21
0.0
 12
0.0
 22
0.0
 32
0.0
 14
0.0
 24
0.0
 34
0.0
 15
0.0
 25
0.0
 35
0.0
146
0.0
 13
0.0
 23
0.0
 33
0.0
 16
1.0
 26
0.0
 36
0.0
 17
0.0
 27
1.0
 37
0.0
 76
     0
330
23
  0
LAYOUT
  5
22
102
{ACAD_REACTORS
330
1A
102
}
330
1A
100
AcDbPlotSettings
  1

  2

  4

  6

 40
0.0
 41
0.0
 42
0.0
 43
0.0
 44
0.0
 45
0.0
 46
0.0
 47
0.0
 48
0.0
 49
0.0
140
0.0
141
0.0
142
1.0
143
1.0
 70
  1712
 72
     0
 73
     0
 74
     0
  7

 75
     0
 76
     0
 77
     2
 78
   300
147
1.0
148
0.0
149
0.0
100
AcDbLayout
  1
Model
 70
     1
 71
     0
 10
0.0
 20
0.0
 11
0.0
 21
0.0
 12
0.0
 22
0.0
 32
0.0
 14
152.471345540467
 24
-230.603158173665
 34
0.0
 15
291.613060893123
 25
-117.5599502096961
 35
0.0
146
0.0
 13
0.0
 23
0.0
 33
0.0
 16
1.0
 26
0.0
 36
0.0
 17
0.0
 27
1.0
 37
0.0
 76
     0
330
1F
  0
MLINESTYLE
  5
18
102
{ACAD_REACTORS
330
17
102
}
330
17
100
AcDbMlineStyle
  2
Standard
 70
     0
  3

 62
   256
 51
90.0
 52
90.0
 71
     2
 49
0.5
 62
   256
  6
BYLAYER
 49
-0.5
 62
   256
  6
BYLAYER
  0
ACDBPLACEHOLDER
  5
F
102
{ACAD_REACTORS
330
E
102
}
330
E
  0
ENDSEC
  0
EOF
